вход на сайт

Имя пользователя :
Пароль :

Восстановление пароля Регистрация
Мальчишник: Часть III / The Hangover Part III (Тодд Филлипс, комедия, 2013) [BDRip-AVC , Дублированный, Авторский (одноголосый закадровый), Украинский, Оригинал (Английский), субтитры]
Рейтинг:
(голосов: 1)



[img]{THEME}/images/logopost.png[/img]



Мальчишник: Часть III / The Hangover Part III
«Вот это конец»

Год выпуска: 2013
Страна: США
Производство: Green Hat Films
Жанр: комедия

Режиссёр: Тодд Филлипс
В ролях: Брэдли Купер, Эд Хелмс, Зак Галифианакис, Кен Жонг, Хэзер Грэм, Джеффри Тэмбор, Джастин Барта, Джон Гудман, Мелисса МакКарти, Майк Эппс

Перевод: Дублированный, Авторский (одноголосый закадровый), Украинский, Оригинал (Английский)
Субтитры: Русские, украинские

Описание:В этот раз никакой свадьбы. Никакого мальчишника. Казалось бы, что могло пойти не так? Но когда Волчья стая оказывается на дороге, все ставки снимаются.



премьера (мир): 20 мая 2013
премьера (РФ): 30 мая 2013, «Каро-Премьер»


Качество: BDRip-AVC
Продолжительность: 01:40:02

Формат: MKV
Видео кодек: H.264
Аудио кодек: AC3
Видео: 1024x426 (2.40:1), 23.976 fps, H.264 ~2 250 kbps avg, 0.215 bit/pixel
Аудио#1: 48 kHz, AC3, 6 ch, ~384.00 kbps avg(Дублированный)
Аудио#2: 48 kHz, AC3, 6 ch, ~384.00 kbps avg(Goblin)
Аудио#3: 48 kHz, AC3, 6 ch, ~384.00 kbps avg(Ukrainian)
Аудио#4: 48 kHz, AC3, 6 ch, ~448.00 kbps avg(Английский)
"Media Info" ▼Общее

Полное имя : D: DownloadsMalchishnik.3.2013.x264.BDRip.(AVC).ExKinoRay.mkv
Формат : Matroska
Версия формата : Version 2
Размер файла : 2,69 Гбайт
Продолжительность : 1 ч. 40 м.
Общий поток : 3850 Кбит/сек
Название фильма : Мальчишник: Часть III. 2013. Rip by: ollan
Дата кодирования : UTC 2013-09-27 15:29:02
Программа кодирования : mkvmerge v5.6.0 (Kenya Kane) built on May 27 2012 16:44:04
Библиотека кодирования : libebml v1.2.3 + libmatroska v1.3.0

Видео
Идентификатор : 1
Формат : AVC
Формат/Информация : Advanced Video Codec
Профиль формата : [email protected]
Параметр CABAC формата : Да
Параметр ReFrames формата : 9 кадров
Идентификатор кодека : V_MPEG4/ISO/AVC
Продолжительность : 1 ч. 40 м.
Битрейт : 2250 Кбит/сек
Ширина : 1024 пикселя
Высота : 426 пикселей
Соотношение сторон : 2,40:1
Режим частоты кадров : Постоянный
Частота кадров : 23,976 кадра/сек
Цветовое пространство : YUV
Субдискретизация насыщенности : 4:2:0
Битовая глубина : 8 бит
Тип развёртки : Прогрессивная
Бит/(Пиксели*Кадры) : 0.215
Размер потока : 1,52 Гбайт (56%)
Библиотека кодирования : x264 core 130 r2273 b3065e6
Настройки программы : cabac=1 / ref=9 / deblock=1:-2:-2 / analyse=0x3:0x133 / me=umh / subme=11 / psy=1 / psy_rd=1.00:0.10 / mixed_ref=1 / me_range=32 / chroma_me=1 / trellis=2 / 8x8dct=1 / cqm=0 / deadzone=21,11 / fast_pskip=0 / chroma_qp_offset=-3 / threads=12 / lookahead_threads=2 / sliced_threads=0 / nr=0 / decimate=0 / interlaced=0 / bluray_compat=0 / constrained_intra=0 / bframes=8 / b_pyramid=2 / b_adapt=2 / b_bias=0 / direct=3 / weightb=1 / open_gop=0 / weightp=2 / keyint=240 / keyint_min=23 / scenecut=40 / intra_refresh=0 / rc_lookahead=80 / rc=2pass / mbtree=1 / bitrate=2250 / ratetol=1.0 / qcomp=0.60 / qpmin=0 / qpmax=69 / qpstep=4 / cplxblur=20.0 / qblur=0.5 / vbv_maxrate=5000 / vbv_bufsize=62500 / nal_hrd=none / ip_ratio=1.40 / aq=1:1.00
Default : Да
Forced : Нет

Аудио #1
Идентификатор : 2
Формат : AC-3
Формат/Информация : Audio Coding 3
Расширение режима : CM (complete main)
Параметр Endianness формата : Big
Идентификатор кодека : A_AC3
Продолжительность : 1 ч. 40 м.
Вид битрейта : Постоянный
Битрейт : 384 Кбит/сек
Каналы : 6 каналов
Расположение каналов : Front: L C R, Side: L R, LFE
Частота : 48,0 КГц
Битовая глубина : 16 бит
Метод сжатия : С потерями
Размер потока : 275 Мбайт (10%)
Заголовок : Дублированный (Лицензия)
Язык : Russian
Default : Да
Forced : Да

Аудио #2
Идентификатор : 3
Формат : AC-3
Формат/Информация : Audio Coding 3
Расширение режима : CM (complete main)
Параметр Endianness формата : Big
Идентификатор кодека : A_AC3
Продолжительность : 1 ч. 40 м.
Вид битрейта : Постоянный
Битрейт : 384 Кбит/сек
Каналы : 6 каналов
Расположение каналов : Front: L C R, Si
3ed2698ea99c0431ab7a5950ac010c912f41e403Мальчишник: Часть III / The Hangover Part III (Тодд Филлипс, комедия, 2013) [BDRip-AVC , Дублированный, Авторский (одноголосый закадровый), Украинский, Оригинал (Английский), субтитры] Мальчишник: Часть III / The Hangover Part III (Тодд Филлипс, комедия, 2013) [BDRip-AVC , Дублированный, Авторский (одноголосый закадровый), Украинский, Оригинал (Английский), субтитры] " />

Аплоадер: Админ, дата: 28-09-2013, 02:12, торрент скачан: 359 раз

Понравилась раздача? Посмотрите эти:
  • Джобс: Империя соблазна / jOBS (Джошуа Майкл Штерн, драма, биография, 2013) ...
  • Одноклассники 2 / Grown Ups 2 (Деннис Дуган, Комедия, 2013) [BDRip-AVC, Про ...
  • Одноклассники 2 / Grown Ups 2 (Деннис Дуган, комедия, 2013) [BDRip 1080p, Д ...
  • Погнали! / Getaway (Кортни Соломон, боевик, криминал, 2013) [BDRip 1080p, П ...
  • Мальчишник: Часть III / The Hangover Part III (Тодд Филлипс, Комедия, 2013) ...
  • Византия / Byzantium (Нил Джордан, Фэнтези, триллер, драма, 2012) [BDRip 10 ...
  • Мальчишник: Часть III / The Hangover Part III (Тодд Филлипс, комедия, 2013) ...
  • Мальчишник: Часть III / The Hangover Part III (Тодд Филлипс, комедия, 2013) ...
  • Мальчишник: Часть III / The Hangover Part III (Тодд Филлипс, комедия, 2013) ...
  • Мальчишник: Часть III / The Hangover Part III (Тодд Филлипс, комедия, 2013) ...
  • Мальчишник: Часть III / The Hangover Part III (Тодд Филлипс, Комедия, 2013) ...
  • Мальчишник: Часть III / The Hangover Part III (Тодд Филлипс, Комедия, 2013) ...
  • Мальчишник: Часть III / The Hangover Part III (Тодд Филлипс, комедия, 2013) ...
  • Мальчишник: Часть III / The Hangover Part III (Тодд Филлипс, комедия, 2013) ...
  • Мальчишник: Часть III / The Hangover Part III (Тодд Филлипс, комедия, 2013) ...
  • Иллюзия обмана / Now You See Me [Extended Cut] (Луи Летерье, триллер, крими ...
  • Иллюзия обмана / Now You See Me [Extended Cut] (Луи Летерье, триллер, крими ...
  • Заклятие / The Conjuring (Джеймс Ван, ужасы, триллер, 2013) [BDRip 720р, Ду ...
  • Заклятие / The Conjuring (Джеймс Ван, ужасы, триллер, 2013) [BDRip 1080p, Д ...
  • Поймай толстуху, если сможешь / Identity Thief [Theatrical Cut] (Сет Гордон ...
  • Ворон / The Raven (Джеймс МакТиг, Триллер, детектив, 2012) [BDRip 1080p, Ду ...
  • Даю год / I Give It a Year (Дэн Мазер, мелодрама, комедия, 2012) [BDRip-AVC ...
  • [Трейлер№2] Мальчишник: Часть III / The Hangover Part III (Тодд Филлипс, ко ...
  • Суррогат / The Sessions (Бен Луин, Драма, 2012) [BDRip-AVC, Профессиональны ...
  • Эд Вуд / Ed Wood (Тим Бёртон, драма, комедия, биография, 1994) [BDRip-AVC, ...
  • Информация
    Посетители, находящиеся в группе Гости, не могут оставлять комментарии к данной публикации.