вход на сайт

Имя пользователя :
Пароль :

Восстановление пароля Регистрация
Отвязные каникулы / Spring Breakers (Хармони Корин, комедия, криминал, драма, 2012) [BDRip, Дубляж, Любительский (одноголосый закадровый) А.Матвеев, Оригинал [Eng], Sub [Rus,Eng]]
Рейтинг:
(голосов: 1)



[img]{THEME}/images/logopost.png[/img]



Отвязные каникулы / Spring Breakers
«Wish You Were Here»



Год выпуска: 2012
Страна: США
Производство: Muse Productions, O Salvation, Division Films
Жанр: комедия, криминал, драма

Режиссер: Хармони Корин
В ролях: Джеймс Франко, Эшли Бенсон, Ванесса Энн Хадженс, Селена Гомес, Рэйчел Корин, Гуччи Мэйн, Хизер Моррис, Эшли Лендцьон, Эмма Холцер, Ли Ирби

Перевод: Дубляж, Любительский (одноголосый закадровый) А.Матвеев, Оригинал [Eng]
Субтитры: Русские (forced, full - MartinaG, voronine), Английские (full) / внешние

Описание: Четыре ученицы колледжа были лучшими подругами, начиная со школьной скамьи. Теперь они живут в скучном общежитии и жаждут приключений. Впереди весенние каникулы, и очень хочется провести их весело и незабываемо. Девчонки решают подзаработать денег, чтобы хватило оторваться по полной.
Правда, способ заработка денег героини выбирают не совсем обычный. Судьба сводит их с одним весьма сомнительным типом, торговцем наркотиками и оружием, и это знакомство обещает предоставить им массу острых ощущений, на которые они уже не могли и надеяться. Как далеко способны зайти девушки, чтобы получить каникулы, которые, уж будьте уверены, они никогда не забудут?



Премьера (мир): 5 сентября 2012
Премьера (РФ): 9 мая 2013, «Каскад»


МедиаИнфо ▼Text

D:Spring.Breakers.2012.BDRipSpring Breakers.2012.BDRip.avi
General
Complete name : D:Spring.Breakers.2012.BDRipSpring Breakers.2012.BDRip.avi
Format : AVI
Format/Info : Audio Video Interleave
Format profile : OpenDML
File size : 2.04 GiB
Duration : 1h 33mn
Overall bit rate : 3 107 Kbps
Movie name : Spring Breakers.2012.BDRip
Director : rip by maygli
Writing application : VirtualDubModRus 1.5.10.2 (build 2542/release)
Copyright :Torrent Club
Video #0
ID : 0
Format : MPEG-4 Visual
Format profile : Advanced [email protected]
Format settings, BVOP : Yes
Format settings, QPel : No
Format settings, GMC : No warppoints
Format settings, Matrix : Custom
Codec ID : XVID
Codec ID/Hint : XviD
Duration : 1h 33mn
Bit rate : 1 738 Kbps
Width : 720 pixels
Height : 304 pixels
Display aspect ratio : 2.35:1
Frame rate : 23.976 fps
Color space : YUV
Chroma subsampling : 4:2:0
Bit depth : 8 bits
Scan type : Progressive
Compression mode : Lossy
Bits/(Pixel*Frame) : 0.331
Stream size : 1.14 GiB (56%)
Writing library : XviD 65
Audio #1
ID : 1
Format : AC-3
Format/Info : Audio Coding 3
Mode extension : CM (complete main)
Codec ID : 2000
Duration : 1h 33mn
Bit rate mode : Constant
Bit rate : 448 Kbps
Channel(s) : 6 channels
Channel positions : Front: L C R, Side: L R, LFE
Sampling rate : 48.0 KHz
Bit depth : 16 bits
Compression mode : Lossy
Stream size : 301 MiB (14%)
Alignment : Split accross interleaves
Interleave, duration : 42 ms (1.00 video frame)
Interleave, preload duration : 500 m
a54fcc800e81064627557668fd45c635f8c83a1bОтвязные каникулы / Spring Breakers (Хармони Корин, комедия, криминал, драма, 2012) [BDRip, Дубляж, Любительский (одноголосый закадровый) А.Матвеев, Оригинал [Eng], Sub [Rus,Eng]] Отвязные каникулы / Spring Breakers (Хармони Корин, комедия, криминал, драма, 2012) [BDRip, Дубляж, Любительский (одноголосый закадровый) А.Матвеев, Оригинал [Eng], Sub [Rus,Eng]] " />

Аплоадер: Админ, дата: 12-11-2013, 12:59, торрент скачан: 359 раз

Понравилась раздача? Посмотрите эти:
  • Вирус / Flu (Ким Сон Су, Драма, 2013) [HDTVRip, Любительский (двухголосый з ...
  • Верное дельце / Une pure affaire (Александр Коффре, Боевик, Комедия, Кримин ...
  • Мои герои / Mes heros (Эрик Беснард, комедия, 2012) [HDRip, Профессиональны ...
  • Безумный Макс 3: Под куполом грома / Mad Max Beyond Thunderdome (Джордж Мил ...
  • Отвязные каникулы / Spring Breakers (Хармони Корин, Драма, комедия, 2012) ...
  • Отвязные каникулы / Spring Breakers (Хармони Корин, драма, комедия, 2012) [ ...
  • Отвязные каникулы / Spring Breakers (Хармони Корин, Драма, комедия, 2012) ...
  • Отвязные каникулы / Spring Breakers (Хармони Корин, Драма, комедия, 2012) ...
  • Отвязные каникулы / Spring Breakers (Хармони Корин, драма, комедия, 2012) [ ...
  • Отвязные каникулы / Spring Breakers (Хармони Корин, Драма, комедия, 2012) [ ...
  • Отвязные каникулы / Spring Breakers (Хармони Корин, Драма, комедия, 2012) [ ...
  • Отвязные каникулы / Spring Breakers (Хармони Корин, драма, комедия, 2012) [ ...
  • Отвязные каникулы / Spring Breakers (Хармони Корин, драма, комедия, 2012) [ ...
  • Отвязные каникулы / Spring Breakers (Хармони Корин, драма, комедия, 2012) [ ...
  • Мужество / Wymyk (Грег Зглински, драма, 2011) [DVDRip, Любительский (одного ...
  • 42 / 42 (Брайан Хелгеленд, драма, биография, спорт, 2013) [BDRip, Профессио ...
  • Неудержимый / Bullet to the Head (Уолтер Хилл, Боевик, триллер, криминал, 2 ...
  • Поймай толстуху, если сможешь [Театральная версия] / Identity Thief [Theatr ...
  • 23:59 / 23:59 (Гилберт Чан, Ужасы, 2011) [HDRip, Любительский (одноголосый ...
  • [Трейлер] Отвязные каникулы / Spring Breakers (Хармони Корин, драма, комеди ...
  • Монстры на каникулах / Hotel Transylvania (Генндий Тартаковский, мультфильм ...
  • Красотки / Hard Breakers (Леа Стургис, комедия, 2010) [HDRip, Профессиональ ...
  • Захват / Carjacked (Джон Бонито, триллер, 2011)[BDRip, Профессиональный (мн ...
  • Супершторм в Сиэтле / Seattle Superstorm (Джейсон Бурк, фантастика, боевик ...
  • Обрезание / Excision (Ричард Бейтс мл., ужасы, драма, комедия,2012) [HDRip, ...
  • Информация
    Посетители, находящиеся в группе Гости, не могут оставлять комментарии к данной публикации.