вход на сайт

Имя пользователя :
Пароль :

Восстановление пароля Регистрация
Очень плохая училка [Расширенная версия] / Bad Teacher (Джейк Кэздан, Комедия, 2011) [BDRip-AVC, Профессиональный (полное дублирование), Оригинал (английский) + Sub]
Рейтинг:
(голосов: 1)



[img]{THEME}/images/logopost.png[/img]



Очень плохая училка [Расширенная версия] / Bad Teacher
«Ей всё по X+Y=?»

Год выпуска: 2011
Страна: США
Производство: Mosaic Media Group
Жанр: Комедия

Режиссёр: Джейк Кэздан
В ролях: Кэмерон Диаз, Джастин Тимберлэйк, Джейсон Сигел, Люси Панч, Филлис Смит, Джон Майкл Хиггинс, Дэйв Аллен, Джиллиан Арменанте, Мэттью Дж. Эванс, Кейтлин Девер

Перевод: Профессиональный (полное дублирование), Оригинал (английский)
Субтитры: Русские (full), Русские (Forced), Украинские (Full), Украинские (Forced), Украинские (BD, Full),Украинские (BD, Forced), Английские
Формат субтитр: softsub (SRT)

Описание: Учительница средних классов живет гламурной жизнью светской львицы, ходит на работу как на вечеринку и мечтает об увеличении объема собственного бюста. Однако после внезапного разрыва с богатым бойфрендом ее образ жизни резко меняется, хотя сама она это осознает не сразу. Но когда в их школу приходит новый преподаватель, она совершенно теряет голову и начинает охоту за… деньгами. Автор рипа: capral555

Качество: BDRip-AVC | Bad Teacher 2011 Blu-ray CEE 1080p AVC DTS-HD MA 5.1-CHDBits
Продолжительность: 01:37:38 час.

Формат: MKV
Видео кодек: x264
Аудио кодек: AC3
Видео: 1152x624 (1.84:1), 23,976 fps, AVC ~2 277 kbps avg, 0.132 bit/pixel
Аудио#1: 48 kHz, AC3, 3/2 (L,C,R,l,r) + LFE ch, ~448 kbps| Профессиональный (полное дублирование)
Аудио#2: 48 kHz, AC3, 3/2 (L,C,R,l,r) + LFE ch, ~448 kbps| Оригинал (английский)

Премьера (мир) - 17 июня 2011
Премьера (РФ) - 7 июля 2011, «WDSSPR»

MediaInfo ▼ Общее
Формат : Matroska
Версия формата : Version 2
Размер файла : 2,16 Гбайт
Продолжительность : 1 ч. 37 м.
Общий поток : 3172 Кбит/сек
Дата кодирования : UTC 2011-10-07 11:02:46
Программа кодирования : mkvmerge v4.9.1 (Ich will) сборка от Jul 11 2011 23:53:15
Библиотека кодирования : libebml v1.2.1 + libmatroska v1.1.1

Видео
Идентификатор : 1
Формат : AVC
Формат/Информация : Advanced Video Codec
Профиль формата : [email protected]
Параметр CABAC формата : Да
Параметр ReFrames формата : 11 кадров
Идентификатор кодека : V_MPEG4/ISO/AVC
Продолжительность : 1 ч. 37 м.
Битрейт : 2277 Кбит/сек
Ширина : 1152 пикселя
Высота : 624 пикселя
Соотношение сторон : 16:9
Частота кадров : 23,976 кадра/сек
Цветовое пространство : YUV
Субдискретизация насыщенности : 4:2:0
Битовая глубина : 8 бит
Тип развёртки : Прогрессивная
Бит/(Пиксели*Кадры) : 0.132
Размер потока : 1,51 Гбайт (70%)
Заголовок : 1152x624 (1.84:1), 23.976 fps, 2277 kbps, 0.132 bit/pixel
Библиотека кодирования : x264 core 116 r2074 2641b9e
Настройки программы : cabac=1 / ref=11 / deblock=1:-3:-2 / analyse=0x3:0x113 / me=umh / subme=10 / psy=1 / psy_rd=1.10:0.05 / mixed_ref=1 / me_range=32 / chroma_me=1 / trellis=2 / 8x8dct=1 / cqm=0 / deadzone=21,11 / fast_pskip=1 / chroma_qp_offset=-3 / threads=6 / sliced_threads=0 / nr=0 / decimate=1 / interlaced=0 / bluray_compat=0 / constrained_intra=0 / bframes=11 / b_pyramid=2 / b_adapt=2 / b_bias=0 / direct=2 / weightb=1 / open_gop=0 / weightp=2 / keyint=250 / keyint_min=23 / scenecut=40 / intra_refresh=0 / rc_lookahead=60 / rc=2pass / mbtree=1 / bitrate=2277 / ratetol=1.0 / qcomp=0.60 / qpmin=0 / qpmax=69 / qpstep=4 / cplxblur=20.0 / qblur=0.5 / ip_ratio=1.40 / aq=2:0.80
Язык : English

Аудио #1
Идентификатор : 2
Формат : AC-3
Формат/Информация : Audio Coding 3
Расширение режима : CM (complete main)
Идентификатор кодека : A_AC3
Продолжительность : 1 ч. 37 м.
Вид битрейта : Постоянный
Битрейт : 448 Кбит/сек
Каналы : 6 каналов
Расположение каналов : Front: L C R, Side: L R, LFE
Частота : 48,0 КГц
Битовая глубина : 16 бит
Метод сжатия : С потерями
Размер потока : 313 Мбайт (14%)
Заголовок : 48 kHz, AC3, 5.1 ch, 448 kbps - Dub
Язык : Russian

Аудио #2
Идентификатор : 3
Формат : AC-3
Формат/Информация : Audio Coding 3
Расширение режима : CM (complete main)
Идентификатор коде
c4f26121f48a5599b2c43b88c69e6ced77904a62Очень плохая училка [Расширенная версия] / Bad Teacher (Джейк Кэздан, Комедия, 2011) [BDRip-AVC, Профессиональный (полное дублирование), Оригинал (английский) + Sub] Очень плохая училка [Расширенная версия] / Bad Teacher (Джейк Кэздан, Комедия, 2011) [BDRip-AVC, Профессиональный (полное дублирование), Оригинал (английский) + Sub] " />

Аплоадер: Админ, дата: 11-11-2013, 19:20, торрент скачан: 359 раз

Понравилась раздача? Посмотрите эти:
  • Исходный код / Source Code (Дункан Джонс, фантастика, боевик, триллер, драм ...
  • Даю год / I Give It a Year (Дэн Мазер, мелодрама, комедия, 2012) [BDRip-AVC ...
  • Очень плохая училка / Bad Teacher (Джейк Кэздан, Комедия, 2011) [DVDRip-AVC ...
  • Очень плохая училка / Bad Teacher(Джейк Кэздан, комедия, 2011) [HDRip, Проф ...
  • Очень плохая училка/ Bad Teacher [UNRATED] (Джейк Кэздан, комедия, 2011)[BD ...
  • Очень плохая училка | Bad Teacher [UNRATED] (Джейк Кэздан, комедия, 2011)[H ...
  • Совсем не бабник / Cedar Rapids (Мигель Артета, комедия, 2011) [BDRip-AVC, ...
  • Драйв / Drive (Николас Виндинг Рёфн, боевик, триллер, драма, криминал, 2011 ...
  • Очень плохая училка / Bad Teacher [UNRATED] (Джейк Кэздан, комедия , 2011) ...
  • Очень плохая училка / Bad Teacher [UNRATED] (Джейк Кэздан, комедия , 2011) ...
  • Очень плохая училка (Расширенная версия) / Bad Teacher (UNRATED) (Джейк Кэз ...
  • Очень плохая училка / Bad Teacher [UNRATED] (Джейк Кэздан, комедия, 2011) [ ...
  • Очень плохая училка / Bad Teacher (Джейк Кэздан, комедия, 2011) [320х176] [ ...
  • (2011, сборник) VA / Очень плохая училка / Bad Teacher (Unofficial OST) [MP ...
  • Очень плохая училка / Bad Teacher (Джейк Кэздан, комедия, 2011) [DVD-5, Дуб ...
  • Очень плохая училка / Bad Teacher (Джейк Кэздан, комедия, 2011) [DVDRip, Ду ...
  • Очень плохая училка / Bad Teacher (Джейк Кэздан, комедия, 2011) [DVDRip, Ду ...
  • Очень плохая училка / Bad Teacher (Джейк Кэздан, Комедия, 2011) [DVDRip - A ...
  • Очень плохая училка / Bad Teacher [UNRATED] (Джейк Кэздан, комедия, 2011) [ ...
  • [ENG] Очень плохая училка / Bad Teacher (Джейк Кэздан, комедия, 2011) [DVDR ...
  • Информация
    Посетители, находящиеся в группе Гости, не могут оставлять комментарии к данной публикации.