вход на сайт

Имя пользователя :
Пароль :

Восстановление пароля Регистрация
Миллионы Брюстера / Brewsters Millions (Уолтер Хилл, Комедия, 1985) [HDTVRip, Профессиональный (многоголосый, закадровый)]
Рейтинг:
(голосов: 1)



[img]{THEME}/images/logopost.png[/img]



Миллионы Брюстера / Brewsters Millions

Год выпуска: 1985
Страна: США
Производство: Davis Entertainment, Lawrence Gordon Productions, Silver Pictures, Universal Pictures
Жанр: Комедия

Режиссёр: Уолтер Хилл
В ролях: Ричард Прайор, Джон Кэнди, Лонетт МакКи, Стивен Коллинз, Джерри Орбак, Пэт Хингл, Това Фелдшух, Хьюм Кронин, Джо Грифази, Питер Джейсон

Перевод: Профессиональный (Многоголосый закадровый)
Субтитры: Отсутствуют

Описание: Сюжет фильма строится на том, что игрок бейсбольной команды получает от скончавшегося эксцентричного родственника (белого миллионера) наследство в сотни миллионов долларов.

Однако не все так просто. В завещании есть коварный пункт. Вредный старикан указал в записанном на кинопленку завещании, что полностью сумму наследник получит лишь в том случае, если за месяц сможет потратить 30 млн долларов до последнего цента.Качество: HDTVRip
Продолжительность: 01:36:56.479 (145412 frames)

Формат: AVI
Видео кодек: XviD
Аудио кодек: MP3
Видео: 688x368 (1.87:1), 25 fps, XviD build 73 ~938 kbps avg, 0.15 bit/pixel
Аудио: 48 kHz, MPEG Layer 3, 2 ch, ~128.00 kbps avg
MediaInfo ▼ Общее
Полное имя : Brewsters.Millions.1985.HDTVRip-745_.avi
Формат : AVI
Формат/Информация : Audio Video Interleave
Размер файла : 746 Мбайт
Продолжительность : 1 ч. 36 м.
Общий поток : 1076 Кбит/сек
Программа кодирования : VirtualDubModRus 1.5.10.2 (build 2542/release)
Библиотека кодирования : VirtualDubMod build 2542/release

Видео
Идентификатор : 0
Формат : MPEG-4 Visual
Профиль формата : Advanced [email protected]
Параметр BVOP формата : 1
Параметр QPel формата : Нет
Параметр GMC формата : Без точки перехода
Параметр матрицы формата : Выборочная
Идентификатор кодека : XVID
Идентификатор кодека/Подсказка : XviD
Продолжительность : 1 ч. 36 м.
Битрейт : 939 Кбит/сек
Ширина : 688 пикселей
Высота : 368 пикселей
Соотношение сторон : 1,870
Частота кадров : 25,000 кадров/сек
Цветовое пространство : YUV
Субдискретизация насыщенности : 4:2:0
Битовая глубина : 8 бит
Тип развёртки : Прогрессивная
Метод сжатия : С потерями
Бит/(Пиксели*Кадры) : 0.148
Размер потока : 651 Мбайт (87%)
Библиотека кодирования : XviD 73

Аудио
Идентификатор : 1
Формат : MPEG Audio
Версия формата : Version 1
Профиль формата : Layer 3
Идентификатор кодека : 55
Идентификатор кодека/Подсказка : MP3
Продолжительность : 1 ч. 36 м.
Вид битрейта : Постоянный
Битрейт : 128 Кбит/сек
Каналы : 2 канала
Частота : 48,0 КГц
Метод сжатия : С потерями
Размер потока : 88,8 Мбайт (12%)
Выравнивание : Соединение по промежуткам
Продолжительность промежутка : 40 мс. (1,00 видеокадр)
Время предзагрузки промежутка : 504 мс.
Библиотека кодирования : LAME3.99r
Настройки программы : -m s -V 4 -q 2 -lowpass 17 -b 128


1bec03a37d124a1f8a83b9906d5d76e68e27bee2Миллионы Брюстера / Brewsters Millions (Уолтер Хилл, Комедия, 1985) [HDTVRip, Профессиональный (многоголосый, закадровый)] Миллионы Брюстера / Brewsters Millions (Уолтер Хилл, Комедия, 1985) [HDTVRip, Профессиональный (многоголосый, закадровый)] " />

Аплоадер: Админ, дата: 6-12-2013, 00:46, торрент скачан: 359 раз

Понравилась раздача? Посмотрите эти:
  • Грязная кампания за честные выборы / The Campaign (Джей Роуч , Комедия,201 ...
  • Слежка / The Letter (Джей Ананья, Триллер, драма, 2012) [DVDRip, Профессион ...
  • Миллион для чайников / The Brass Teapot (Рамаа Мосли, Фэнтези, триллер, ком ...
  • Астрал на улице Арлетт / 388 Arletta Avenue (Рэндолл Коул, Триллер, 2011) [ ...
  • Секс и ничего лишнего / My Awkward Sexual Adventure (Шон Гэррити, Комедия, ...
  • Миллионы Брюстера / Brewsters Millions (Уолтер Хилл, Комедия, 1985) [HDTVRi ...
  • Миллионы Брюстера / Brewsters Millions / 1985 / DVDRip
  • Миллионы Брюстера / Brewsters Millions (Уолтер Хилл, Kомедия, 1985) [DVDRip ...
  • Рождённый свободным / The Colt (Елена Ланская, драма, боевик, история, 200 ...
  • Двенадцать бедствий на Рождество / The 12 Disasters of Christmas (Стивен Р. ...
  • Киддо - супергрузовичок / Kiddo The Super Truck (Д. Нэйр, Мультфильм, 2002) ...
  • Путешествие на дно моря / Voyage to the Bottom of the Sea (Ирвин Аллен / I ...
  • Кажется, я люблю свою жену / I Think I Love My Wife (Крис Рок, Драма, мелод ...
  • Темный сахар / Brown Sugar (Рик Фамуйива, Драма, мелодрама, комедия, музыка ...
  • Бог любви / God of Love (Люк Мэзени, Короткометражка, фэнтези, комедия, мел ...
  • Любовь по расписанию / Поезд (Сергей Мезенцев, мелодрама, 2012) [HDTVRip, Н ...
  • Заместитель / Il supplente (Андреа Жублин, Короткометражка, комедия, 2007) ...
  • Дорога на... / Road to (Таисия Игуменцева, Комедия, короткометражный, 2011) ...
  • Покорить высоту / Take It to the Limit (Сэм Кит / Sam Kieth, семейный, 2000 ...
  • Светлячок. Воссоединение Коричневых плащей к 10 годовщине / Firefly 10th An ...
  • А что насчет тебя? / How About You (Энтони Бирн, Драма, комедия, 2007) [DVD ...
  • Детский душ / Baby Shower (Pablo Illanes, Ужасы, 2011) [DVDRip, Любительски ...
  • Привет, Джули! / Flipped (Роб Райнер, драма, мелодрама, комедия , 2010) [HD ...
  • Пожирая живых / Ночь зомби / Zombie Night (Дэвид Дж. Фрэнсис, Ужасы, комеди ...
  • Бюро находок : Потерянный и найденный / Lost and Found (Филип Хант, коротко ...
  • Информация
    Посетители, находящиеся в группе Гости, не могут оставлять комментарии к данной публикации.