вход на сайт

Имя пользователя :
Пароль :

Восстановление пароля Регистрация
(Не)жданный принц / Un prince (presque) charmant (Филипп Леллуш, Мелодрама,Комедия, 2013) [DVDRip-AVC, Профессиональный (полное дублирование)]
Рейтинг:
(голосов: 1)



[img]{THEME}/images/logopost.png[/img]



(Не)жданный принц / Un prince (presque) charmant

Год выпуска: 2013
Страна: Франция
Производство: EuropaCorp, TF1 Films Production, Canal+
Жанр: Мелодрама,Комедия

Автор сценария: Люк Бессон
Режиссёр: Филипп Леллуш
В ролях: Венсан Перес, Ваина Джоканте, Жером Киршер, Хлоя Куллу, Жак Вебер, Николь Кальфан, Мусса Мааскри, Коме Левин, Жюдит Сибони, Пьер Лаплейс

Перевод: Профессиональный (полное дублирование)
Субтитры: Нет

Описание: Разведенный карьерист и циник Жан-Марк не остановится ни перед чем для достижения своих целей. За подготовкой крупного контракта он едва не пропускает свадьбу собственной дочери и лишь за два дня до торжества собирается в путь. Дорога обернется для героя встречей с его полной противоположностью, романтичной и бескорыстной девушкой Мари, которая, вопреки духу времени, мечтает о принце на белом коне…



Качество: DVDRip-AVC
Продолжительность: 01:23:32

Формат: MKV
Видео кодек: AVC
Аудио кодек: AC3
Видео: 1024x432 (2.40:1), 25.000 fps, 2061 kb/s, 0.186 Bits/(Pixel*Frame)
Аудио: 48.0 KHz, 6 ch, AC3, 448 kb/s

"MI" ▼Format : Matroska
Format version : Version 2
File size : 1.46 GiB
Duration : 1h 23mn
Overall bit rate : 2 510 Kbps
Encoded date : UTC 2013-11-23 22:01:10
Writing application : mkvmerge v6.1.0 (Old Devil) built on Mar 4 2013 09:10:42
Writing library : libebml v1.3.0 + libmatroska v1.4.0

Video
ID : 1
Format : AVC
Format/Info : Advanced Video Codec
Format profile : [email protected]
Format settings, CABAC : Yes
Format settings, ReFrames : 10 frames
Codec ID : V_MPEG4/ISO/AVC
Duration : 1h 23mn
Bit rate : 2 061 Kbps
Width : 1 024 pixels
Height : 432 pixels
Display aspect ratio : 2.40:1
Frame rate : 25.000 fps
Color space : YUV
Chroma subsampling : 4:2:0
Bit depth : 8 bits
Scan type : Progressive
Bits/(Pixel*Frame) : 0.186
Stream size : 1.17 GiB (80%)
Writing library : x264 core 130 r2273 b3065e6
Encoding settings : cabac=1 / ref=10 / deblock=1:-3:-3 / analyse=0x3:0x133 / me=umh / subme=11 / psy=1 / psy_rd=1.00:0.20 / mixed_ref=1 / me_range=32 / chroma_me=1 / trellis=2 / 8x8dct=1 / cqm=0 / deadzone=21,11 / fast_pskip=0 / chroma_qp_offset=-3 / threads=12 / lookahead_threads=2 / sliced_threads=0 / nr=0 / decimate=0 / interlaced=0 / bluray_compat=0 / constrained_intra=0 / bframes=8 / b_pyramid=2 / b_adapt=2 / b_bias=0 / direct=3 / weightb=1 / open_gop=0 / weightp=2 / keyint=250 / keyint_min=25 / scenecut=40 / intra_refresh=0 / rc=2pass / mbtree=0 / bitrate=2061 / ratetol=1.0 / qcomp=0.60 / qpmin=0 / qpmax=69 / qpstep=4 / cplxblur=20.0 / qblur=0.5 / ip_ratio=1.40 / pb_ratio=1.30 / aq=1:1.00
Default : Yes
Forced : No

Audio
ID : 2
Format : AC-3
Format/Info : Audio Coding 3
Mode extension : CM (complete main)
Format settings, Endianness : Big
Codec ID : A_AC3
Duration : 1h 23mn
Bit rate mode : Constant
Bit rate : 448 Kbps
Channel(s) : 6 channels
Channel positions : Front: L C R, Side: L R, LFE
Sampling rate : 48.0 KHz
Bit depth : 16 bits
Compression mode : Lossy
Stream size : 266 MiB (18%)
Default : Yes
Forced : No




bee3ac9253c209f94f3f28166f5b316b067fa95a(Не)жданный принц / Un prince (presque) charmant (Филипп Леллуш, Мелодрама,Комедия, 2013) [DVDRip-AVC, Профессиональный (полное дублирование)] (Не)жданный принц / Un prince (presque) charmant (Филипп Леллуш, Мелодрама,Комедия, 2013) [DVDRip-AVC, Профессиональный (полное дублирование)] " />

Аплоадер: Админ, дата: 24-11-2013, 09:32, торрент скачан: 359 раз

Понравилась раздача? Посмотрите эти:
  • Чемпионат Англии 2013-2014 / Английский акцент / 16-й тур / Обзор / НТВ+ [1 ...
  • Чемпионат Англии 2013-2014 / Английский акцент / Обзор 17 тура / НТВ+ [футб ...
  • Чемпионат Англии 2013-2014 / 22-й тур / Обзор / Match of the day / BBC One ...
  • (Не)жданный принц / Un prince (presque) charmant (Филипп Леллуш, Мелодрама, ...
  • FLO / NRG [2012, Pop, Dance, MasterRip]
  • (Не)жданный принц / Un prince (presque) charmant (Филипп Леллуш, Мелодрама, ...
  • Eminem / Rap God [2013, Rap, HDRip]
  • Пастырь / Priest (Скотт Чарльз Стюарт, ужасы, фантастика, боевик, триллер, ...
  • Иллюзия обмана / Now You See Me [Theatrical Cut] (Луи Летерье / Louis Leter ...
  • Экзамен для двоих / Admission (Пол Вайц, драма, мелодрама, комедия, 2013) [ ...
  • Соучастник / Collateral (Майкл Манн, Триллер, драма, криминал, 2004) [BDRip ...
  • UFC The Ultimate 100 Knockouts - PPV [MMA,2013, HDTVRip 720p]
  • UFC - Best Of 2012 Year In Review[MMA,2013, BDRip 540p]
  • [Трейлер] (Не)жданный принц / Un prince (presque) charmant (Филипп Леллуш, ...
  • Жизнь Пи / Life Of Pi (Энг Ли, Драма, приключения, 2012) [BDRip 1080p, Проф ...
  • Черное золото / Black Gold (Жан-Жак Анно, Драма, 2011) [BDRip-AVC, Професси ...
  • Домашняя работа / The Art of Getting By (Гэвин Вьесен, драма, мелодрама, 20 ...
  • Футбольный клуб / Чемпионат Европы 2012 / НТВ+ [Футбол, 08.06.2012, HDTVRip ...
  • Чемпионат Европы 2012 / 1/4 финала / Чехия - Португалия / Спорт 1 HD [Футбо ...
  • Чемпионат Европы 2012 / 1/2 финала / Португалия - Испания / Спорт 1 HD [Фу ...
  • Чемпионат Европы 2012 / 1/2 финала / Германия - Италия / Спорт 1 HD [Футбо ...
  • Chelsea - Season Review 2011-12 / Челси - Обзор Сезона 2011-12 [ Футбол, 20 ...
  • Mylene Farmer / Du Temps [2011, Pop, HDTVRip]
  • Mylene Farmer / Bleu Noir [2011, Pop, HDTVRip]
  • Madonna / Girl Gone Wild [2012, Pop, HDTV]
  • Информация
    Посетители, находящиеся в группе Гости, не могут оставлять комментарии к данной публикации.