вход на сайт

Имя пользователя :
Пароль :

Восстановление пароля Регистрация
Евротур / EuroTrip (Джефф Шеффер, Алек Берг, Дэвид Мэндел, Комедия, приключения, 2004) [BDRip-AVC, Профессиональный (полное дублирование), Оригинал (английский), Sub]
Рейтинг:
(голосов: 1)



[img]{THEME}/images/logopost.png[/img]



Евротур / EuroTrip
«No actual Europeans were harmed in the making of this film.»

Год выпуска: 2004
Страна: США
Производство: Blue Sea Productions Inc., DreamWorks SKG, The Montecito Picture Company
Жанр: Комедия, приключения

Режиссёр: Джефф Шеффер, Алек Берг, Дэвид Мэндел
В ролях: Скотт Мехловиц, Джекоб Питтс, Кристин Кройк, Кэти Мейлс, Ниел Исхаков, Мишель Трахтенберг, Трэвис Уэстер, Мэтт Дэймон, Дж. Адамс, Кристофер Бейрд

Перевод: Профессиональный (полное дублирование), Оригинал (английский)
Субтитры: русские, английские

Описание: Скотт Томас завел себе друга по переписке из Германии из самых практичных соображений. Он хотел получить отличную оценку по немецкому, а некто с именем Мик согласился перевести его домашние работы. Но вскоре выяснилось, что Мик — обворожительная блондинка, которая не прочь увидеть своего американского друга вживую. После выпускных экзаменов Скотт прихватывает нескольких близких друзей и летит в Европу. Впереди его ждет увлекательное, хоть и беспокойное путешествие из Лондона в Берлин через Париж и Амстердам…



Качество: BDRip-AVC
Продолжительность: 01:43:16 час.

Формат: MKV
Видео кодек: AVC
Аудио кодек: AС3
Видео: 1024x576 (16:9), 23.976 fps, Advanced Video Codec ~3250 kbps avg, 0.230 bit/pixel
Аудио #1: 48 kHz, AC3 Dolby Digital, 3/2 (L,C,R,l,r) + LFE ch, ~448.00 kbps avg - Rus
Аудио #2: 48 kHz, AC3 Dolby Digital, 3/2 (L,C,R,l,r) + LFE ch, ~448.00 kbps avg - Eng

Дата премьеры (мир): 20 февраля 2004
Дата премьеры (РФ): 26 августа 2004, «Централ Партнершип»

MediaInfo ▼Format : Matroska
Format version : Version 4 / Version 2
File size : 2.61 GiB
Duration : 1h 30mn
Overall bit rate : 4 149 Kbps
Movie name : -=MediaClub - Odessit=-
Encoded date : UTC 2013-11-18 08:56:45
Writing application : mkvmerge v6.2.0 (Promised Land) built on Apr 28 2013 12:22:01
Writing library : libebml v1.3.0 + libmatroska v1.4.0

Video
ID : 1
Format : AVC
Format/Info : Advanced Video Codec
Format profile : [email protected]
Format settings, CABAC : Yes
Format settings, ReFrames : 10 frames
Codec ID : V_MPEG4/ISO/AVC
Duration : 1h 30mn
Bit rate : 3 250 Kbps
Width : 1 024 pixels
Height : 576 pixels
Display aspect ratio : 16:9
Frame rate : 23.976 fps
Color space : YUV
Chroma subsampling : 4:2:0
Bit depth : 8 bits
Scan type : Progressive
Bits/(Pixel*Frame) : 0.230
Stream size : 1.99 GiB (76%)
Writing library : x264 core 130 r2273 b3065e6
Encoding settings : cabac=1 / ref=10 / deblock=1:-2:-2 / analyse=0x3:0x133 / me=umh / subme=11 / psy=1 / psy_rd=1.00:0.20 / mixed_ref=1 / me_range=48 / chroma_me=1 / trellis=2 / 8x8dct=1 / cqm=0 / deadzone=21,11 / fast_pskip=0 / chroma_qp_offset=-3 / threads=6 / lookahead_threads=1 / sliced_threads=0 / nr=0 / decimate=0 / interlaced=0 / bluray_compat=0 / constrained_intra=0 / bframes=9 / b_pyramid=2 / b_adapt=2 / b_bias=0 / direct=3 / weightb=1 / open_gop=0 / weightp=2 / keyint=240 / keyint_min=23 / scenecut=40 / intra_refresh=0 / rc=2pass / mbtree=0 / bitrate=3250 / ratetol=1.0 / qcomp=0.60 / qpmin=0 / qpmax=69 / qpstep=4 / cplxblur=20.0 / qblur=0.5 / ip_ratio=1.40 / pb_ratio=1.30 / aq=1:1.00
Language : English

Audio #1
ID : 2
Format : AC-3
Format/Info : Audio Coding 3
Mode extension : CM (complete main)
Codec ID : A_AC3
Duration : 1h 30mn
Bit rate mode : Constant
Bit rate : 448 Kbps
Channel(s) : 6 channels
Channel positions : Front: L C R, Side: L R, LFE
Sampling rate : 48.0 KHz
Bit depth : 16 bits
Compression mode : Lossy
Stream size : 289 MiB (11%)
Title : Дублированный
Language : Russian

Audio #2
ID : 3
Format : AC-3
Format/Info : Audio Coding 3
Mode extension : CM (complete main)
Codec ID : A_AC3
Duration : 1h 30mn
Bit rate mode : Constant
Bit rate : 448 Kbps
Channel(s) : 6 channels
Channel positions : Front: L C R, Side: L R, LFE
Sampling rate : 48.0 KHz
Bit depth : 16 bits
Compression mode : Lossy
Stream size : 289 MiB (11%)
Language : English

Text #1
ID : 4
Format : UTF-8
Codec ID : S_TEXT/UTF8
Codec
0ce3e17fb700286994eb98190ded0cb60bc1fc4eЕвротур / EuroTrip (Джефф Шеффер, Алек Берг, Дэвид Мэндел, Комедия, приключения, 2004) [BDRip-AVC, Профессиональный (полное дублирование), Оригинал (английский), Sub] Евротур / EuroTrip (Джефф Шеффер, Алек Берг, Дэвид Мэндел, Комедия, приключения, 2004) [BDRip-AVC, Профессиональный (полное дублирование), Оригинал (английский), Sub] " />

Аплоадер: Админ, дата: 21-11-2013, 18:05, торрент скачан: 359 раз

Понравилась раздача? Посмотрите эти:
  • Армагеддец / The Worlds End (Эдгар Райт, фантастика, боевик, комедия, 2013) ...
  • За кадром... / In a World...(Лэйк Белл, комедия, 2013) [BDRip-AVC, Професси ...
  • Евротур / EuroTrip (Джефф Шеффер, Алек Берг, Дэвид Мэндел, Комедия, приключ ...
  • Евротур / EuroTrip (Джефф Шеффер, Алек Берг, Дэвид Мэндел, комедия, приключ ...
  • Евротур / EuroTrip (Джефф Шеффер, Алек Берг, Дэвид Мэндел, комедия, приключ ...
  • Пастырь / Priest (Скотт Чарльз Стюарт, ужасы, фантастика, боевик, триллер, ...
  • Парни что надо / The Right Stuff (Филип Кауфман, Фантастика, драма, приключ ...
  • Повелитель лавин / Prince Avalanche (Дэвид Гордон Грин, Драма, комедия, 201 ...
  • Турбо / Turbo (Дэвид Сорен, Мультфильм, комедия, приключения, семейный, спо ...
  • Как выйти замуж за 3 дня / Leap Year (Ананд Такер, Мелодрама, комедия, 2010 ...
  • Соучастник / Collateral (Майкл Манн, Триллер, драма, криминал, 2004) [BDRip ...
  • Жизнь Пи / Life Of Pi (Энг Ли, Драма, приключения, 2012) [BDRip 1080p, Проф ...
  • Экипаж / Flight (Роберт Земекис, Драма, 2012) [BDRip-AVC, Профессиональный ...
  • Евротур / Eurotrip (Джеф Шэффер, комедия, 2004) [DVDRip, Дубляж + Оригинал] ...
  • Евротур / EuroTrip (Джеф Шэффер, Алек Берг, Дэвид Мэндел, комедия, приключе ...
  • Хранитель времени / Hugo (Мартин Скорсезе, Драма, 2011) [BDRip-AVC, Професс ...
  • Евротур / EuroTrip [Unrated] (Джефф Шеффер, Алек Берг, Дэвид Мэндел, комеди ...
  • Закон доблести / Act of Valor (Майк МакКой, Скотт Во, боевик, триллер, прик ...
  • Коллекционер 2 / The Collection (Маркус Данстэн, ужасы, боевик, триллер , 2 ...
  • Евротур / EuroTrip (Джеф Шэффер, Алек Берг, Дэвид Мэндел, комедия, приключ ...
  • Евротур / EuroTrip (Джеф Шэффер, комедия, приключения, 2004) [320 x 240] [D ...
  • Евротур / EuroTrip (Джеф Шэффер, комедия, приключения, 2004) [HDTVRip, Проф ...
  • Евротур / EuroTrip [Unrated] (Джефф Шеффер, Алек Берг, Дэвид Мэндел, комеди ...
  • Евротур / EuroTrip [Unrated] (Джефф Шеффер, Алек Берг, Дэвид Мэндел, комеди ...
  • Евротур [Расширенная версия] / EuroTrip [UNRATED] (Джефф Шеффер, Алек Берг, ...
  • Информация
    Посетители, находящиеся в группе Гости, не могут оставлять комментарии к данной публикации.