вход на сайт

Имя пользователя :
Пароль :

Восстановление пароля Регистрация
Готовые на всё / Workers - Pronti a tutto (Лоренцо Виньоло, Комедия, 2012) [DVDRip, Профессиональный (многоголосный, закадровый) [НТВ+]]
Рейтинг:
(голосов: 1)



[img]{THEME}/images/logopost.png[/img]



Готовые на всё / Workers - Pronti a tutto
------



Год выпуска: 2012
Страна: Италия
Производство: Gruppo Minerva International
Жанр: Комедия

Режиссер: Лоренцо Виньоло
В ролях: Дарио Бандьера, Алессандро Бьянчи, Паоло Бригулья, Нино Фрассика, Николь Гримаудо, Кристина Серафини, Франческо Паннофино, Микеланджело Пульчи, Алессандро Тибери, Даниэла Вирджилио ...

Перевод: Профессиональный (многоголосный, закадровый) [НТВ+]
Субтитры: Отсутствуют

Описание: Несколько занятных историй, которые случаются с клиентами агентства по трудоустройству. Они получают работу, о которой даже подумать не могли: ухаживать за паралитиком — хулиганом и бабником, собирать сперму быков и гримировать покойников.



Премьера (мир): 11 мая 2012, ...

МедиаИнфо ▼Text

D:Gotovye.na.vse.2012.P.DVDRip.avi
General
Complete name : D:Gotovye.na.vse.2012.P.DVDRip.avi
Format : AVI
Format/Info : Audio Video Interleave
File size : 1.46 GiB
Duration : 1h 42mn
Overall bit rate : 2 032 Kbps
Writing application : VirtualDubMod 1.5.10.2 (build 2540/release)
Writing library : VirtualDubMod build 2540/release
Video #0
ID : 0
Format : MPEG-4 Visual
Format profile : Advanced [email protected]
Format settings, BVOP : Yes
Format settings, QPel : No
Format settings, GMC : No warppoints
Format settings, Matrix : Default (MPEG)
Codec ID : XVID
Codec ID/Hint : XviD
Duration : 1h 42mn
Bit rate : 1 830 Kbps
Width : 720 pixels
Height : 304 pixels
Display aspect ratio : 2.35:1
Frame rate : 25.000 fps
Color space : YUV
Chroma subsampling : 4:2:0
Bit depth : 8 bits
Scan type : Progressive
Compression mode : Lossy
Bits/(Pixel*Frame) : 0.334
Stream size : 1.31 GiB (90%)
Writing library : XviD 1.2.1 (UTC 2008-12-04)
Audio #1
ID : 1
Format : AC-3
Format/Info : Audio Coding 3
Mode extension : CM (complete main)
Codec ID : 2000
Duration : 1h 42mn
Bit rate mode : Constant
Bit rate : 192 Kbps
Channel(s) : 2 channels
Channel positions : Front: L R
Sampling rate : 48.0 KHz
Bit depth : 16 bits
Compression mode : Lossy
Stream size : 141 MiB (9%)
Alignment : Split accross interleaves
Interleave, duration : 40 ms (1.00 video frame)
Interleave, preload duration : 500 ms



Качество: DVDRip
Продолжительность: 01:42:50

Формат: AVI
Видео кодек: XviD
Аудио кодек: AC3
Видео: 720x304 (2.37:1), 25 fps, XviD build 50 ~1829 kbps avg, 0.33 bit/pixel
Аудио: 48 kHz, AC3 Dolby Digital, 2/0 (L,R) ch, ~192.00 kbps avg





9a9a05fbd4152ea2372e75beb7c648e88331ef3bГотовые на всё / Workers - Pronti a tutto (Лоренцо Виньоло, Комедия, 2012) [DVDRip, Профессиональный (многоголосный, закадровый) [НТВ+]] Готовые на всё / Workers - Pronti a tutto (Лоренцо Виньоло, Комедия, 2012) [DVDRip, Профессиональный (многоголосный, закадровый) [НТВ+]] " />

Аплоадер: Админ, дата: 21-11-2013, 08:23, торрент скачан: 359 раз

Понравилась раздача? Посмотрите эти:
  • Вирус / Flu (Ким Сон Су, Драма, 2013) [HDTVRip, Любительский (двухголосый з ...
  • Орудие смерти / A-i-deul... (Ли Гю Ман, Триллер, криминал, 2011) [DVDRip, П ...
  • Марафон / De Marathon (Дидрик Копал, комедия, спорт, 2012) [HDRip, Професси ...
  • Марафон / De Marathon (Дидрик Копал, комедия, спорт, 2012) [HDRip, Професси ...
  • Верное дельце / Une pure affaire (Александр Коффре, Боевик, Комедия, Кримин ...
  • Мои герои / Mes heros (Эрик Беснард, комедия, 2012) [HDRip, Профессиональны ...
  • Номад: Начало / Nomad the Beginning (Томас Диксон, фантастика, боевик, 2013 ...
  • Кодовое имя «Джеронимо» / Seal Team Six: The Raid on Osama Bin Laden (Джон ...
  • Мужество / Wymyk (Грег Зглински, драма, 2011) [DVDRip, Любительский (одного ...
  • 42 / 42 (Брайан Хелгеленд, драма, биография, спорт, 2013) [BDRip, Профессио ...
  • Решала (Роман Асхаев, Драма,Криминал, 2012) [WEB-DLRip, Не требуется]
  • Звук моего голоса / Sound of My Voice (Зал Батманглидж, триллер, драма, 201 ...
  • Слепой поворот / Blind Turn (Роберт Орр, Триллер, драма, детектив, 2012) [W ...
  • 23:59 / 23:59 (Гилберт Чан, Ужасы, 2011) [HDRip, Любительский (одноголосый ...
  • Тюремщик / Screwed (Рег Тревисс / Reg Traviss, Драма, 2011) [DVDRip , Люби ...
  • Плохая актриса / Bad Actress (Роберт Ли Кинг, комедия, 2011) [DVDRip, Профе ...
  • Захват / Carjacked (Джон Бонито, триллер, 2011)[BDRip, Профессиональный (мн ...
  • Чемпионат Европы 2012 / Группа C / 1-й тур / Ирландия — Хорватия / ТРК Футб ...
  • Чемпионат Европы 2012 / Группа D / 1-й тур / Украина - Швеция / Спорт 1 [11 ...
  • Tank Feat. T.I. & Kris Stephens / Compliments [2012, RnB,Hip-Hop, HDRip]
  • Влюбленные (Валерий Бебко, Комедия, 2011) [DVDRip, Оригинал]
  • Трус / Faintheart (Вито Рокко, Комедия, 2008) [BDRip, Профессиональный (дву ...
  • Супершторм в Сиэтле / Seattle Superstorm (Джейсон Бурк, фантастика, боевик ...
  • Олимпиада 2012 / Женщины, Мужчины / Плавание / Квалификация / НТВ+ [30.07.2 ...
  • Девушки в опасности / Damsels in Distress (Уит Стиллман, драма, мелодрама, ...
  • Информация
    Посетители, находящиеся в группе Гости, не могут оставлять комментарии к данной публикации.