вход на сайт

Имя пользователя :
Пароль :

Восстановление пароля Регистрация
Из джунглей в джунгли / Jungle 2 Jungle (Джон Пасквин, комедия, приключения, семейный, 1997) [DVDRip, Профессиональный (многоголосый закадровый)]
Рейтинг:
(голосов: 1)



[img]{THEME}/images/logopost.png[/img]



• Из джунглей в джунгли / Jungle 2 Jungle •
♥ Год выпуска: 1997
♥ Страна: США, Франция
♥ Производство: TF1 Films Production, Walt Disney Pictures
♥ Жанр: комедия, приключения, семейный

♥ Режиссёр: Джон Пасквин
♥ В ролях: Тим Аллен, Мартин Шорт, ДжоБет Уильямс, Лолита Давидович, Сэм Хантингтон, Дэвид Огден Стайерз, Боб Диши, Валери Махаффей, Лили Собески, Фрэнки Дж. Джалассо

♥ Перевод: Профессиональный (многоголосый закадровый)
♥ Субтитры: Нет

♥ Описание: Преуспевающий брокер Майкл Кромвель отправляется в амазонские джунгли, чтобы получить долгожданный развод. Но вместе с вожделенной свободой ему достается… тринадцатилетний сын, о существовании которого он и не подозревал.

Новоиспеченный отец привозит его в Нью-Йорк. И здесь оказывается, что мальчик, воспитанный среди аборигенов, больше разбирается в дротиках и копьях, чем в светских манерах…



MediaInfo ▼
TextGeneral
Complete name : C:Из джунглей в джунгли (1997).avi
Format : AVI
Format/Info : Audio Video Interleave
File size : 745 MiB
Duration : 1h 44mn
Overall bit rate : 994 Kbps
Movie name : Из джунглей в джунгли (1997)
Writing application : VirtualDubMod 1.5.10.2 (build 2542/release)
Video #0
ID : 0
Format : MPEG-4 Visual
Format profile : Advanced [email protected]
Format settings, BVOP : 1
Format settings, QPel : No
Format settings, GMC : No warppoints
Format settings, Matrix : Custom
Codec ID : XVID
Codec ID/Hint : XviD
Duration : 1h 44mn
Bit rate : 857 Kbps
Width : 656 pixels
Height : 368 pixels
Display aspect ratio : 16:9
Frame rate : 23.976 fps
Color space : YUV
Chroma subsampling : 4:2:0
Bit depth : 8 bits
Scan type : Progressive
Compression mode : Lossy
Bits/(Pixel*Frame) : 0.148
Stream size : 642 MiB (86%)
Writing library : XviD 1.2.1 (UTC 2008-12-04)
Audio #1
ID : 1
Format : MPEG Audio
Format version : Version 1
Format profile : Layer 3
Mode : Joint stereo
Mode extension : MS Stereo
Codec ID : 55
Codec ID/Hint : MP3
Duration : 1h 44mn
Bit rate mode : Constant
Bit rate : 128 Kbps
Channel(s) : 2 channels
Sampling rate : 48.0 KHz
Compression mode : Lossy
Stream size : 96.0 MiB (13%)
Alignment : Aligned on interleaves
Interleave, duration : 42 ms (1.00 video frame)
Interleave, preload duration : 504 ms
♥ Качество: DVDRip | Сэмпл
♥ Продолжительность: 01:44:50

♥ Формат: AVI
♥ Видео кодек: XviD
♥ Аудио кодек: MP3
♥ Видео: 656x368 (16:9), 23.976 fps, XviD build 50 ~857 kbps avg, 0.148 bit/pixel
♥ Аудио: 48 kHz, MPEG Layer 3, 2 ch, ~128.00 kbps avg

♥ Дата премьеры (мир): 7 марта 1997

Релиз Группы "Virtus"

Стол заказов / Вступление в РГ / Благодарности, критика и другое


79c0d487da9cb219d5398713349a1724725fa765Из джунглей в джунгли / Jungle 2 Jungle (Джон Пасквин, комедия, приключения, семейный, 1997) [DVDRip, Профессиональный (многоголосый закадровый)] Из джунглей в джунгли / Jungle 2 Jungle (Джон Пасквин, комедия, приключения, семейный, 1997) [DVDRip, Профессиональный (многоголосый закадровый)] " />

Аплоадер: Админ, дата: 4-12-2012, 13:41, торрент скачан: 359 раз

Понравилась раздача? Посмотрите эти:
  • Непристойная комедия / InAPPropriate Comedy (Винс Оффер, комедия, 2013) [DV ...
  • Из джунглей в джунгли / Jungle 2 Jungle (Джон Пасквин, Комедия, 1997) [DVDR ...
  • Мэрайа Мунди и шкатулка Мидаса / The Adventurer: The Curse of the Midas Box ...
  • Мэрайа Мунди и шкатулка Мидаса / The Adventurer: The Curse of the Midas Box ...
  • В хлам / Smashed (Джеймс Понсольдт, Драма, комедия, 2012) [HDRip, Профессио ...
  • Любовь на кончиках пальцев / Populaire (Режис Ройнсар, Мелодрама, комедия, ...
  • Лучший стрелок / Top Gun (Тони Скотт, боевик, драма, мелодрама, 1986) [BDRi ...
  • Псы войны / The Dogs of War (Джон Ирвин, боевик, драма, приключения, военны ...
  • Плохая актриса / Bad Actress (Роберт Ли Кинг, комедия, 2011) [DVDRip, Профе ...
  • Эрик Викинг / Erik the Viking (Терри Джонс, фэнтези, комедия, приключения, ...
  • Захват / Carjacked (Джон Бонито, триллер, 2011)[BDRip, Профессиональный (мн ...
  • Мой парень – псих / Silver Linings Playbook (Дэвид О. Расселл, Драма, мелод ...
  • Молодежный чемпионат мира 2012 (U-20). Четвертьфинал: Россия - Чехия [02.01 ...
  • Чемпионат Испании 2011-12 / 36-й тур / Реал Мадрид - Севилья / НТВ+ [Футбол ...
  • Чемпионат Европы 2012 / Группа C / 1-й тур / Ирландия — Хорватия / ТРК Футб ...
  • Чемпионат Европы 2012 / Группа D / 1-й тур / Украина - Швеция / Спорт 1 [11 ...
  • Олимпиада 2012 / Мужчины / Группа D / 1-й тур / Испания — Япония / НТВ+ [Фу ...
  • Олимпиада 2012 / Футбол / Мужчины / Группа A / 3-й тур / Великобритания - У ...
  • Мутанты / Mimic (Гильермо дель Торо, ужасы, фантастика, 1997) [HDRip, Профе ...
  • Буря в Арктике / Arctic Blast (Брайан Тренчард-Смит, фантастика, триллер, 2 ...
  • Вскрытие инопланетянина/Alien Autopsy (Джонни Кэмпбелл, Комедия, фантастика ...
  • NBA Finals 2012 / Sportscenter / В преддверии 3-ей игры / Viasat Sport [Бас ...
  • Товарищеский матч 2012 / АмаЗулу (ЮАР) - Манчестер Юнайтед (Англия) / MU TV ...
  • Олимпиада 2012 / Женщины, Мужчины / Плавание / Квалификация / НТВ+ [30.07.2 ...
  • Робинзон Крузо / Robinson Crusoe (Род Харди, Джордж Миллер, драма, приключе ...
  • Информация
    Посетители, находящиеся в группе Гости, не могут оставлять комментарии к данной публикации.