вход на сайт

Имя пользователя :
Пароль :

Восстановление пароля Регистрация
Гений (2 части из 2) (Виктор Сергеев, Комедия, криминал, 1991) [DVDRip, Не требуется]
Рейтинг:
(голосов: 1)



[img]{THEME}/images/logopost.png[/img]



Гений (2 части из 2)

Год выпуска: 1991
Страна: СССР
Производство: Ладога, Ленфильм
Жанр: Комедия, криминал

Режиссёр: Виктор Сергеев
В ролях: Александр Абдулов, Иннокентий Смоктуновский, Лариса Белогурова, Юрий Кузнецов, Валентина Талызина, Сергей Проханов, Анатолий Кузнецов, Альгис Матулёнис, Виктор Ильичев, Виктор Смирнов

Перевод: Не требуется
Субтитры: Отсутствуют

Описание:
Герой фильма, в прошлом талантливый физик — электронщик, а ныне директор овощного магазина, имеет криминальное хобби. Его изобретательные и технические великолепные операции задевают интересы не только правоохранительных органов, но и кровожадных мафиозных структур.


Дополнительно:
MediaInfo ▼Text
"1 часть" ▼Общее
Полное имя :L:3.РаздачаГенийGeniy_DVDRip1.avi
Формат :AVI
Размер :1 004 MiB
Продолжительность :01:08:26.720
Общий поток :2 052 Kbps
Программа кодирования :VirtualDubModRus 1.5.10.2 (build 2542/release)
Библиотека кодирования :VirtualDubMod build 2542/release

Видео
Идентификатор :0
Формат :MPEG-4 Visual
Параметр BVOP формата :1
Параметр Qpel формата :No
Параметр GMC формата :0
Параметр Matrix формата :Default (H.263)
Идентификатор кодека :DX50
Продолжительность :1h 8mn 26s 720ms
Битрейт :1 850 Kbps
Ширина :688 pixels
Высота :512 pixels
Соотношение сторон :1.344
Частота кадров :25.000 fps
Глубина цвета :8 bits
Подвыборка цветности :4:2:0
Цветовое пространство :YUV
Тип развертки :Progressive
Бит/(Пиксели*Кадры) :0.210
Размер потока :906 MiB (90%)
Библиотека кодирования :DivX503b2676p

Аудио #1
Идентификатор :1
Формат :MPEG Audio
Идентификатор кодека :55
Продолжительность :01:08:26.712
Вид битрейта :Constant
Битрейт :192 Kbps
Канал(ы) :2 channels
Частота :48.0 KHz
Метод сжатия :Lossy
Размер потока :94.0 MiB (9%)

"2 часть" ▼Общее
Полное имя :L:3.РаздачаГенийGeniy_DVDRip2.avi
Формат
1894d90bbfc23318ebb0395f19b8e807f59f949bГений (2 части из 2) (Виктор Сергеев, Комедия, криминал, 1991) [DVDRip, Не требуется] Гений (2 части из 2) (Виктор Сергеев, Комедия, криминал, 1991) [DVDRip, Не требуется] " />

Аплоадер: Админ, дата: 27-11-2012, 21:10, торрент скачан: 359 раз

Понравилась раздача? Посмотрите эти:
  • Дни хирурга Мишкина (3 части из 3) (Вадим Зобин, драма, 1967) [DVDRip, Не т ...
  • Возвращение резидента (2 части из 2) (Вениамин Дорман, триллер, 1982) [DVDR ...
  • Конец операции «Резидент» (2 части из 2) (Вениамин Дорман, боевик, приключе ...
  • Отпуск за свой счет (2 части из 2) (Виктор Титов, мелодрама, комедия, 1981) ...
  • Мир дому твоему (2 части из 2) (Константин Райкин, Аркадий Райкин, Марк Орл ...
  • Люди и манекены (4 части из 4) (Виктор Храмов, Аркадий Райкин, комедия, 197 ...
  • Дон Сезар де Базан (2 части из 2) (Ян Фрид, мюзикл, комедия, 1989) [DVDRip, ...
  • Анискин и Фантомас (2 части из 2) (Михаил Жаров, Владимир Рапопорт, комедия ...
  • Операция «Трест» (4 части из 4) (Сергей Колосов, приключения, история, 1967 ...
  • Объяснение в любви (2 части из 2) (Илья Авербах, мелодрама, 1977) [DVDRip, ...
  • Карнавал (2 части из 2) (Татьяна Лиознова, мюзикл, комедия, 1981) [DVDRip, ...
  • Гений [1991, Комедия, Криминал, DVDRip]
  • Степь (2 части из 2) (Сергей Бондарчук, драма, история, 1977) [DVDRip, Не т ...
  • У меня есть лев (2 части из 2) (Константин Бромберг, драма, комедия, приклю ...
  • Ханума (2 части из 2) (Георгий Товстоногов, мюзикл, комедия, 1978) [DVDRip, ...
  • Приморский бульвар (2 части из 2) (Александр Полынников, мюзикл, комедия, 1 ...
  • Почти смешная история (2 части из 2) (Петр Фоменко, мелодрама, комедия, 197 ...
  • Тихий Дон (3 части из 3) (Сергей Герасимов, драма, военный, 1957) [DVDRip, ...
  • Рок-н-ролл для принцесс (2 части из 2) (Радомир Василевский, Комедия, семей ...
  • Подпольный обком действует (4 части из 4) (Анатолий Буковский, военный, 197 ...
  • В лесах под Ковелем (3 части из 3) (Юрий Тупицкий, военный, история, 1984) ...
  • Гений (Виктор Сергеев Криминал, Комедия, 1991 г,) [DVDRipб Оригинал]
  • ЧП – Чрезвычайное происшествие (2 части из 2-х) (Виктор Ивченко, боевик, 19 ...
  • Дядюшкин сон (2 части из2) (Александр Орлов, драма, комедия, 1981) [DVDRip, ...
  • Воскресенье, половина седьмого (4 части из 4) (Вадим Зобин, криминал, детек ...
  • Информация
    Посетители, находящиеся в группе Гости, не могут оставлять комментарии к данной публикации.