вход на сайт

Имя пользователя :
Пароль :

Восстановление пароля Регистрация
Школа воров 2 / Scuola di ladri - parte seconda (Нери Паренти, Комедия, 1987) [DVDRip, Профессиональный (многоголосый, закадровый)]
Рейтинг:
(голосов: 1)



[img]{THEME}/images/logopost.png[/img]



Школа воров 2 / Scuola di ladri - parte seconda

Год выпуска: 1987
Страна: Италия
Производство: C.G. Silver Film, Maura International Films, Reteitalia
Жанр: Комедия

Режиссёр: Нери Паренти
В ролях: Паоло Вилладжио, Массимо Болди, Энрико Мария Салерно, Барбара Скоппа, Флоренс Гуэрин

Перевод: Профессиональный (многоголосый, закадровый)
Субтитры: Отсутствуют

Описание:
Троица недотеп снова «в деле». Они опять встречают своего «ослепшего дядю» и под его руководством собираются ограбить корабль, на котором перевозят драгоценности. Заодно с дядей действует красавица Сюзанна.


СЭМПЛ

Дополнительно:
MediaInfo ▼Text
Общее
Полное имя :S:Школа воров 2Shkola.vorov.2.1987.DivX.DVDRip.avi
Формат :AVI
Размер :1.37 GiB
Продолжительность :01:31:35.120
Общий поток :2 137 Kbps
Программа кодирования :FairUse Wizard - http://fairusewizard.com
Библиотека кодирования :The best and REALLY easy backup tool

Видео
Идентификатор :0
Формат :MPEG-4 Visual
Параметр BVOP формата :1
Параметр Qpel формата :No
Параметр GMC формата :0
Параметр Matrix формата :Default (H.263)
Идентификатор кодека :DX50
Продолжительность :1h 31mn 35s 120ms
Битрейт :2 000 Kbps
Ширина :688 pixels
Высота :416 pixels
Соотношение сторон :1.654
Частота кадров :25.000 fps
Глубина цвета :8 bits
Подвыборка цветности :4:2:0
Цветовое пространство :YUV
Тип развертки :Progressive
Бит/(Пиксели*Кадры) :0.279
Размер потока :1.28 GiB (94%)
Библиотека кодирования :DivX503b2816p

Аудио #1
Идентификатор :1
Формат :AC-3
Формат/Информация :Audio Coding 3
Идентификатор кодека :2000
Продолжительность :01:31:35.104
Вид битрейта :Constant
Битрейт :128 Kbps
Канал(ы) :2 channels
Расположение каналов :Front: L R
Частота :48.0 KHz
Битовая глубина :16 bits
Метод сжатия :Lossy
Размер потока :83.8 MiB (6%)Тех. данные:
Качество:DVDRip
aced54d5a3796b93283213504cea65cbc788d238Школа воров 2 / Scuola di ladri - parte seconda (Нери Паренти, Комедия, 1987) [DVDRip, Профессиональный (многоголосый, закадровый)] Школа воров 2 / Scuola di ladri - parte seconda (Нери Паренти, Комедия, 1987) [DVDRip, Профессиональный (многоголосый, закадровый)] " />

Аплоадер: Админ, дата: 16-11-2012, 01:00, торрент скачан: 359 раз

Понравилась раздача? Посмотрите эти:
  • Хатчипух / Hatschipuh (Ульрих Кениг, мультфильм, семейный, 1987) [DVDRip, П ...
  • Похитители велосипедов / Ladri di biciclette (Витторио Де Сика, драма, крим ...
  • Школа воров 2/ Scuola di ladri-parte seconda(Комедия,Паоло Вилладжио)[DvdRi ...
  • Магазинчик за углом / The Shop Around the Corner (Эрнст Любич, драма, мелод ...
  • Апач / Apache (Роберт Олдрич, вестерн, 1954) [DVDRip, Профессиональный (мно ...
  • Шарло в Испании / Les Charlots font lEspagne (Жан Жиро, комедия, 1972) [DVD ...
  • Выигрыш в новогоднюю лотерею / Ho vinto la lotteria di Capodanno (Нери Паре ...
  • Школа воров / Scuola di ladri(Паоло Вилладжио,комедия,1986 год)[DVDRip,Проф ...
  • Фантоцци в раю / Fantozzi in paradiso (Нери Паренти / Neri Parenti) [1993 г ...
  • У Фантоцци опять неприятности / Fantozzi subisce ancora (Нери Паренти , Ком ...
  • Вальсирующие / Les valseuses (Бертран Блие, драма, комедия, криминал, 1966) ...
  • Второй трагический Фантоцци / Il secondo tragico Fantozzi (Лучано Сальче, к ...
  • Возвращение Фантоцци / Fantozzi - Il ritorno (Нери Паренти,комедия , 1996) ...
  • Комики 3 / Le nuove comiche (Нери Паренти, Комедия , 1994) [DVDRip, Любител ...
  • Комики(Маленькие комедии ) / Le comiche (Нери Паренти, комедия, 1992) [DVDR ...
  • Укрощение строптивой / The Taming of the Shrew (Франко Дзеффирелли, комедия ...
  • Летняя школа / Summer School (Карл Райнер, мелодрама, комедия, 1987) [DVDRi ...
  • День добрый, улыбка! / Bonjour sourire! (Клод Соте, комедия, 1956) [DVDRip, ...
  • Мой дядюшка / Mon oncle (Жак Тати, комедия, 1958) [DVDRip, Профессиональный ...
  • Погоня за Бенджи / Benji the Hunted (Джо Кэмп, приключения, семейный, 1987) ...
  • Повышение / The Promotion (Стив Конрад, Комедия, 2008) [DVDRip, Профессиона ...
  • Уик-энд / Week End (Жан-Люк Годар, драма, комедия, 1967) [DVDRip, Профессио ...
  • Каникулы в Майами / Natale A Miami (Нери Паренти, Комедия, 2005) [DVDRip, П ...
  • Бессмертная тетушка / Nesmrtelna teta (Зденек Зеленка, комедия, 1993) [DVDR ...
  • Эпоха радио / Radio Days (Вуди Аллен, комедия, семейный, 1987) [DVDRip, Про ...
  • Информация
    Посетители, находящиеся в группе Гости, не могут оставлять комментарии к данной публикации.