вход на сайт

Имя пользователя :
Пароль :

Восстановление пароля Регистрация
Шапито-шоу: Любовь и дружба / Уважение и сотрудничество (2 части из 2) (Сергей Лобан, Комедия, 2011) [BDRip, Не требуется]
Рейтинг:
(голосов: 1)



[img]{THEME}/images/logopost.png[/img]





Шапито-шоу: Любовь и дружба
«Есть много ремиксов, а песня одна»


Год выпуска: 2011
Страна: Россия
Производство: Inmotion Films, Organic Films, Passenger Film Studio, Свои 2000
Жанр: Комедия

Режиссёр: Сергей Лобан | Sergei Loban
В ролях: Петр Мамонов (Отец), Вера Строкова (Вера), Сергей Кузьменко (Рома-Легенда), Алексей Подольский (киберстранник), Валерий Заводовский (Валера), Сергей Волжин-Ястребов (Сергей Михайлович), Юлия Говор (корреспондентка), Майк Колтер (Colonel), Дмитрий Новиков (телеоператор), Джим Авиньон (Авиньон)

Перевод: Не требуется
Субтитры: Отсутствуют

Описание:
Новелла Любовь. Спешите видеть! Пронзительная история любви хрупкой девушки, которая мечтала стать принцессой и загадочного юноши, который скрывается от людей под именем Киберстранник. Море слез и бездна отчаяния! Могут ли Золушка и Человек-Невидимка быть вместе? Только у нас!

Новелла Дружба. Впервые на экране! Юноша, утративший способность слышать, но сохранивший пылающее сердце, и мальчик с ледяным осколком в глазу. Коварное предательство и несгибаемое мужество! Огненный Данко и Ледяной Кай, две стихии, столкнувшись, могут уничтожить Вселенную! Торопитесь видеть!



Автор рипа: Captain_Max

Качество: BDRip | исх. Blu-ray disk
Продолжительность: 01:46:37 час.

Формат: AVI
Видео кодек: Xvid
Аудио кодек: AC3
Видео: 704x368 (1.913), 25 fps, XviD build 65 ~2390 kbps avg, 0.369 bit/pixel
Аудио: 48 kHz, AC3, 6 ch, ~448.00 kbps avg

Дата премьеры (мир): 30 января 2012
Дата премьеры (РФ): 26 января 2012, «Organic Films»

"MediaInfo" ▼Общее
Полное имя : D:TorrentШапито-шоуШапито-шоу_4.32Шапито-шоу_4.32Шапито-шоу_ЛиД_4.32.avi
Формат : AVI
Формат/Информация : Audio Video Interleave
Профиль формата : OpenDML
Размер файла : 2,12 Гбайт
Продолжительность : 1 ч. 46 м.
Общий поток : 2850 Кбит/сек
Программа кодирования : VirtualDubModRus 1.5.10.2 (build 2540/release)
Библиотека кодирования : VirtualDubMod build 2540/release

Видео
Идентификатор : 0
Формат : MPEG-4 Visual
Профиль формата : Advanced [email protected]
Параметр BVOP формата : 1
Параметр QPel формата : Нет
Параметр GMC формата : Без точки перехода
Параметр матрицы формата : Выборочная
Идентификатор кодека : XVID
Идентификатор кодека/Подсказка : XviD
Продолжительность : 1 ч. 46 м.
Битрейт : 2390 Кбит/сек
Ширина : 704 пикселя
Высота : 368 пикселей
Соотношение сторон : 1,913
Частота кадров : 25,000 кадров/сек
Цветовое пространство : YUV
Субдискретизация насыщенности : 4:2:0
Битовая глубина : 8 бит
Тип развёртки : Прогрессивная
Метод сжатия : С потерями
Бит/(Пиксели*Кадры) : 0.369
Размер потока : 1,78 Гбайт (84%)
Библиотека кодирования : XviD 1.2.1 (UTC 2008-12-04)

Аудио
Идентификатор : 1
Формат : AC-3
Формат/Информация : Audio Coding 3
Расширение режима : CM (complete main)
Параметр Endianness формата : Big
Идентификатор кодека : 2000
Продолжительность : 1 ч. 46 м.
Вид битрейта : Постоянный
Битрейт : 448 Кбит/сек
Каналы : 6 каналов
Расположение каналов : Front: L C R, Side: L R, LFE
Частота : 48,0 КГц
Битовая глубина : 16 бит
Метод сжатия : С потерями
Размер потока : 342 Мбайт (16%)
Выравнивание : Разделение по промежуткам
Продолжительность промежутка : 40 мс. (1,00 видеокадр)
Время предзагрузки промежутка : 500 мс.
"Скриншоты" ▼



Шапито-шоу: Уважение и сотрудничество
«Есть много ремиксов, а песня одна»


Год выпуска: 2011
Страна: Россия
Производство: Inmotion Films, Organic Films, Passenger Film Studio, Свои 2000
Жанр: Комедия

Режиссёр: Сергей Лобан | Sergei Loban
В ролях: Петр Мамонов (Отец), Вера Строкова (Вера), Сергей Кузьменко (Рома-Легенда), Алексей Подольский (киберстранник), Валерий Заводовский (Валера), Сергей Волжин-Ястребов (Сергей Михайлович), Юлия Говор (корреспондентка), Майк Колтер (Colonel), Дмитрий Новиков (телеоператор), Джим Авиньон (Авиньон)

Перевод: Не требуется
Субтитры: Отсутствуют

Описание:
Новелла Уважение. Смертельный номер! Великий мудрец, заплутавший во т
8fee535a61a3fb3a5b0b5000215842a28c960d94Шапито-шоу: Любовь и дружба / Уважение и сотрудничество (2 части из 2) (Сергей Лобан, Комедия, 2011) [BDRip, Не требуется] Шапито-шоу: Любовь и дружба / Уважение и сотрудничество (2 части из 2) (Сергей Лобан, Комедия, 2011) [BDRip, Не требуется] " />

Аплоадер: Админ, дата: 24-10-2012, 15:33, торрент скачан: 359 раз

Понравилась раздача? Посмотрите эти:
  • Бойфренд из будущего / About Time (Ричард Кёртис, Фантастика, драма, комеди ...
  • Одноклассники 2 / Grown Ups 2 (Деннис Дуган, Комедия, 2013) [BDRip, Професс ...
  • Околофутбола (Антон Борматов, драма, криминал, 2013) [DVDRip, Не требуется] ...
  • Миллион для чайников / The Brass Teapot (Рамаа Мосли, Фэнтези, триллер, ком ...
  • Шоу Трумана / The Truman Show (Питер Уир, Фантастика, драма, комедия, 1998) ...
  • Шапито-шоу: Любовь и дружба // Часть 1 (Сергей Лобан, комедия, 2011) [BDRip ...
  • Шапито-шоу: Любовь и дружба / Уважение и сотрудничество (2 части из 2) (Сер ...
  • Жил-был тигр / Ek Tha Tiger (Кабир Кхан, боевик, триллер , 2012) [ HDRip, ...
  • Легенда о МорДу / The Legend of MorDu (Брайан Ларсен, Короткометражный, ска ...
  • Я тоже хочу (Алексей Балабанов, драма, криминал, 2012) [DVDRip, Не требуетс ...
  • Небывальщина (Сергей Овчаров, комедия, 1983) [DVDRip, Не требуется]
  • В Россию за любовью! (Арман Геворгян, Комедия, 2012) [DVDRip, Не требуется] ...
  • Степь (2 части из 2) (Сергей Бондарчук, драма, история, 1977) [DVDRip, Не т ...
  • Любовь по расписанию / Поезд (Сергей Мезенцев, мелодрама, 2012) [HDTVRip, Н ...
  • В начале славных дел (Сергей Герасимов, драма, история, 1980) [DVDRip, Не т ...
  • Дорога на... / Road to (Таисия Игуменцева, Комедия, короткометражный, 2011) ...
  • Шапито-шоу: Любовь и дружба/Уважение и сотрудничество (1-2часть) (Сергей Ло ...
  • Шапито-шоу: Любовь и дружба / Уважение и сотрудничество (Сергей Лобан, коме ...
  • Баллада о бомбере (Виталий Воробьев, военный, 2011) [BDRip, не требуется]
  • Шаман // Сезон 1, Эпизоды с 1 по 16 (из 16) (Драма, Криминал, 2011) [DVDRip ...
  • Гениальный папа / Father of Invention (Трент Купер, Драма, комедия, 2010) [ ...
  • Шапито-шоу: Любовь и дружба / Уважение и сотрудничество (2 части из 2) (Сер ...
  • Глаз шторма / The Eye of the Storm (Фред Скеписи, Драма, 2011) [HDRip, Проф ...
  • Человек из банки (Иван Кульнев, Комедия, 2012) [DVDRip, Не требуется]
  • Сдохни, Джон Такер / John Tucker Must Die (Бетти Томас, мелодрама, комедия, ...
  • Информация
    Посетители, находящиеся в группе Гости, не могут оставлять комментарии к данной публикации.