вход на сайт

Имя пользователя :
Пароль :

Восстановление пароля Регистрация
Шапито-шоу: Любовь и дружба / Уважение и сотрудничество (2 части из 2) (Сергей Лобан, Комедия, 2011) [BDRip, Не требуется]
Рейтинг:
(голосов: 1)



[img]{THEME}/images/logopost.png[/img]





Шапито-шоу: Любовь и дружба
«Есть много ремиксов, а песня одна»


Год выпуска: 2011
Страна: Россия
Производство: Inmotion Films, Organic Films, Passenger Film Studio, Свои 2000
Жанр: Комедия

Режиссёр: Сергей Лобан | Sergei Loban
В ролях: Петр Мамонов (Отец), Вера Строкова (Вера), Сергей Кузьменко (Рома-Легенда), Алексей Подольский (киберстранник), Валерий Заводовский (Валера), Сергей Волжин-Ястребов (Сергей Михайлович), Юлия Говор (корреспондентка), Майк Колтер (Colonel), Дмитрий Новиков (телеоператор), Джим Авиньон (Авиньон)

Перевод: Не требуется
Субтитры: Отсутствуют

Описание:
Новелла Любовь. Спешите видеть! Пронзительная история любви хрупкой девушки, которая мечтала стать принцессой и загадочного юноши, который скрывается от людей под именем Киберстранник. Море слез и бездна отчаяния! Могут ли Золушка и Человек-Невидимка быть вместе? Только у нас!

Новелла Дружба. Впервые на экране! Юноша, утративший способность слышать, но сохранивший пылающее сердце, и мальчик с ледяным осколком в глазу. Коварное предательство и несгибаемое мужество! Огненный Данко и Ледяной Кай, две стихии, столкнувшись, могут уничтожить Вселенную! Торопитесь видеть!



Автор рипа: Captain_Max

Качество: BDRip | исх. Blu-ray disk
Продолжительность: 01:46:37 час.

Формат: AVI
Видео кодек: Xvid
Аудио кодек: MP3
Видео: 640x336 (1.905), 25 fps, XviD build 65 ~833 kbps avg, 0.155 bit/pixel
Аудио: 48 kHz, MPEG Layer 3, 2 ch, ~128.00 kbps avg

Дата премьеры (мир): 30 января 2012
Дата премьеры (РФ): 26 января 2012, «Organic Films»

"MediaInfo" ▼Общее
Полное имя : D:TorrentШапито-шоуШапито-шоу_1.46Шапито-шоу_1.46Шапито-шоу_ЛиД_1.46.avi
Формат : AVI
Формат/Информация : Audio Video Interleave
Размер файла : 740 Мбайт
Продолжительность : 1 ч. 46 м.
Общий поток : 970 Кбит/сек
Программа кодирования : VirtualDubMod 1.5.10.3 | www.virtualdub-fr.org || (build 2550/release)
Библиотека кодирования : VirtualDubMod build 2550/release

Видео
Идентификатор : 0
Формат : MPEG-4 Visual
Профиль формата : Advanced [email protected]
Параметр BVOP формата : 1
Параметр QPel формата : Нет
Параметр GMC формата : Без точки перехода
Параметр матрицы формата : Выборочная
Идентификатор кодека : XVID
Идентификатор кодека/Подсказка : XviD
Продолжительность : 1 ч. 46 м.
Битрейт : 833 Кбит/сек
Ширина : 640 пикселей
Высота : 336 пикселей
Соотношение сторон : 1,905
Частота кадров : 25,000 кадров/сек
Цветовое пространство : YUV
Субдискретизация насыщенности : 4:2:0
Битовая глубина : 8 бит
Тип развёртки : Прогрессивная
Метод сжатия : С потерями
Бит/(Пиксели*Кадры) : 0.155
Размер потока : 635 Мбайт (86%)
Библиотека кодирования : XviD 65

Аудио
Идентификатор : 1
Формат : MPEG Audio
Версия формата : Version 1
Профиль формата : Layer 3
Идентификатор кодека : 55
Идентификатор кодека/Подсказка : MP3
Продолжительность : 1 ч. 46 м.
Вид битрейта : Постоянный
Битрейт : 128 Кбит/сек
Каналы : 2 канала
Частота : 48,0 КГц
Метод сжатия : С потерями
Размер потока : 97,6 Мбайт (13%)
Выравнивание : Соединение по промежуткам
Продолжительность промежутка : 40 мс. (1,00 видеокадр)
Время предзагрузки промежутка : 504 мс.
Библиотека кодирования : LAME3.99
Настройки программы : -m s -V 4 -q 0 -lowpass 17 -b 128
"Скриншоты" ▼






Шапито-шоу: Уважение и сотрудничество
«Есть много ремиксов, а песня одна»


Год выпуска: 2011
Страна: Россия
Производство: Inmotion Films, Organic Films, Passenger Film Studio, Свои 2000
Жанр: Комедия

Режиссёр: Сергей Лобан | Sergei Loban
В ролях: Петр Мамонов (Отец), Вера Строкова (Вера), Сергей Кузьменко (Рома-Легенда), Алексей Подольский (киберстранник), Валерий Заводовский (Валера), Сергей Волжин-Ястребов (Сергей Михайлович), Юлия Говор (корреспондентка), Майк Колтер (Colonel), Дмитрий Новиков (телеоператор), Джим Авиньон (Авиньон)

Перевод: Не требуется
Субтитры: Отсутствуют

Описание:
Новелла Уважение. Смертельный номер! Великий мудрец, заплутавший во тьме,
be8c73b657773df32bfd554c2a298346f72f905aШапито-шоу: Любовь и дружба / Уважение и сотрудничество (2 части из 2) (Сергей Лобан, Комедия, 2011) [BDRip, Не требуется] Шапито-шоу: Любовь и дружба / Уважение и сотрудничество (2 части из 2) (Сергей Лобан, Комедия, 2011) [BDRip, Не требуется] " />

Аплоадер: Админ, дата: 24-10-2012, 00:40, торрент скачан: 359 раз

Понравилась раздача? Посмотрите эти:
  • Околофутбола (Антон Борматов, драма, криминал, 2013) [DVDRip, Не требуется] ...
  • Секс и ничего лишнего / My Awkward Sexual Adventure (Шон Гэррити, Комедия, ...
  • К черному морю (Андрей Тутышкин, мелодрама, комедия, 1957) [DVDRip, не треб ...
  • Шапито-шоу: Любовь и дружба // Часть 1 (Сергей Лобан, комедия, 2011) [BDRip ...
  • Шапито-шоу: Любовь и дружба / Уважение и сотрудничество (2 части из 2) (Сер ...
  • Злые птицы: Хэллоуин / Angry Birds: HamOWeen (Джей Ройвайнен, Мультфильм, к ...
  • Темный сахар / Brown Sugar (Рик Фамуйива, Драма, мелодрама, комедия, музыка ...
  • Я тоже хочу (Алексей Балабанов, драма, криминал, 2012) [DVDRip, Не требуетс ...
  • Небывальщина (Сергей Овчаров, комедия, 1983) [DVDRip, Не требуется]
  • В Россию за любовью! (Арман Геворгян, Комедия, 2012) [DVDRip, Не требуется] ...
  • Степь (2 части из 2) (Сергей Бондарчук, драма, история, 1977) [DVDRip, Не т ...
  • 1812: Уланская баллада (Олег Фесенко, приключения, 2012) [DVDRip, Не требуе ...
  • Бог любви / God of Love (Люк Мэзени, Короткометражка, фэнтези, комедия, мел ...
  • Любовь по расписанию / Поезд (Сергей Мезенцев, мелодрама, 2012) [HDTVRip, Н ...
  • Вечерний Ургант // Сезон 2. Выпуск 63 (ТВ-шоу, 20.12.2012) [SATRip, Не треб ...
  • Заместитель / Il supplente (Андреа Жублин, Короткометражка, комедия, 2007) ...
  • Вечерний Ургант // Сезон 2. Выпуск 66 (ТВ-шоу, 25.12.2012) [SATRip, Не треб ...
  • Дорога на... / Road to (Таисия Игуменцева, Комедия, короткометражный, 2011) ...
  • Детский душ / Baby Shower (Pablo Illanes, Ужасы, 2011) [DVDRip, Любительски ...
  • Шапито-шоу: Любовь и дружба/Уважение и сотрудничество (1-2часть) (Сергей Ло ...
  • Шапито-шоу: Любовь и дружба / Уважение и сотрудничество (Сергей Лобан, коме ...
  • Шаман // Сезон 1, Эпизоды с 1 по 16 (из 16) (Драма, Криминал, 2011) [DVDRip ...
  • Шапито-шоу: Любовь и дружба / Уважение и сотрудничество (2 части из 2) (Сер ...
  • Бюро находок : Потерянный и найденный / Lost and Found (Филип Хант, коротко ...
  • Человек из банки (Иван Кульнев, Комедия, 2012) [DVDRip, Не требуется]
  • Информация
    Посетители, находящиеся в группе Гости, не могут оставлять комментарии к данной публикации.