вход на сайт

Имя пользователя :
Пароль :

Восстановление пароля Регистрация
Экспериментатор / Slunce, seno, jahody (Зденек Трошка, Комедия, 1984) [DVDRip, Профессиональный (полное дублирование)]
Рейтинг:
(голосов: 1)



[img]{THEME}/images/logopost.png[/img]



Экспериментатор / Slunce, seno, jahody

Год выпуска: 1984
Страна: Чехия, Словакия
Производство: Киностудия "Баррандов"
Жанр: Комедия

Режиссёр: Зденек Трошка
В ролях: Бронек Черны, Эрна Червена, Hana Cizkova, Карел Энджел, Иржина Ираскова, Вероника Канская, Павел Кикинчук, Людек Копржива, Иржи Костка, Ярослава Кречмерова

Перевод: Профессиональный (полное дублирование)
Субтитры: Отсутствуют

Описание:
Фильм рассказывает о трудовом семестре в деревне студента-ветеринара, одержимого идей применить на практике свои «грандиозные» открытия в области животноводства.


Дополнительно:
MediaInfo ▼Text
Общее
Полное имя :L:РАЗДАЧАЭкспериментаторEksperimentator.1983.(DVDRip.XviD.Rus.).avi
Формат :AVI
Размер :701 MiB
Продолжительность :01:05:25.800
Общий поток :1 498 Kbps
Программа кодирования :VirtualDubModRus 1.5.10.2 (build 2540/release)

Видео
Идентификатор :0
Формат :MPEG-4 Visual
Профиль формата :Advanced [email protected]
Параметр BVOP формата :1
Параметр Qpel формата :No
Параметр GMC формата :0
Параметр Matrix формата :Custom
Идентификатор кодека :XVID
Продолжительность :1h 5mn 25s 800ms
Битрейт :1 393 Kbps
Ширина :576 pixels
Высота :432 pixels
Соотношение сторон :1.333
Частота кадров :25.000 fps
Глубина цвета :8 bits
Подвыборка цветности :4:2:0
Цветовое пространство :YUV
Тип развертки :Progressive
Бит/(Пиксели*Кадры) :0.224
Размер потока :652 MiB (93%)
Библиотека кодирования :XviD0046

Аудио #1
Идентификатор :1
Формат :MPEG Audio
Идентификатор кодека :55
Продолжительность :01:05:25.800
Вид битрейта :Constant
Битрейт :96.0 Kbps
Канал(ы) :1 channel
Частота :48.0 KHz
Метод сжатия :Lossy
Размер потока :44.9 MiB (6%)Тех. данные:
Качество:DVDRip
Продолжительность:01:05:20 час

Формат: AVI
Видео кодек: XviD
Аудио кодек: MPA1L3
Видео: 576x432 (1.33:1), 25 fps, XviD build 46 ~1392 kbps avg, 0.22 bit/pixel
Аудио : 48 kHz, MPEG Layer 3, 1
fa1cffcbbfb32113cc1b3cb13c81f6c694892a93Экспериментатор / Slunce, seno, jahody (Зденек Трошка, Комедия, 1984) [DVDRip, Профессиональный (полное дублирование)] Экспериментатор / Slunce, seno, jahody (Зденек Трошка, Комедия, 1984) [DVDRip, Профессиональный (полное дублирование)] " />

Аплоадер: Админ, дата: 5-10-2012, 20:27, торрент скачан: 359 раз

Понравилась раздача? Посмотрите эти:
  • Ботинок по имени Мелихар / Bota Jmenem Melichar (Зденек Трошка, семейный, 1 ...
  • Кукарача (Кети Долидзе, Сико Долидзе, драма, 1982) [DVDRip, Профессиональны ...
  • Девушка со швейной машинкой (Михаил Чиаурели, Георгий Шенгелая, комедия, 19 ...
  • Гикор (Сергей Исраелян, драма, семейный, 1982) [DVDRip, Профессиональный (п ...
  • Тоска (Фрунзе Довлатян, драма, 1990) [DVDRip, Профессиональный (полное дубл ...
  • Украденный поезд (Владимир Янчев, драма, 1971) [DVDRip, Профессиональный (п ...
  • Трое на снегу / Drei Manner im Schnee (Альфред Форер, комедия, 1974) [DVDRi ...
  • Деревенька моя центральная / Vesnicko ma strediskova (Иржи Менцель, Комедия ...
  • Черная гора (Александр Згуриди, драма, семейный, 1972) [DVDRip, Профессиона ...
  • Соло для слона с оркестром (2 части из 2) (Ольдржих Липский, комедия, семей ...
  • Пропавшая грамота (Борис Ивченко, фэнтези, комедия, 1972) [DVDRip, Професси ...
  • Я, бабушка, Илико и Илларион (Тенгиз Абуладзе, мелодрама, комедия, 1962) [D ...
  • Слуги дьявола на Чёртовой мельнице (Александр Лейманис, комедия, приключени ...
  • Слуги Дьявола (Александр Лейманис, комедия, приключения, 1970) [DVDRip, Про ...
  • Последний переход (Амангельды Тажбаев, боевик, 1981) [DVDRip, Профессиональ ...
  • Попугай, говорящий на идиш (Эфраим Севела, драма, комедия, приключения, вое ...
  • Как украсть миллион / How to steal a million (Уильям Уайлер, комедия, крими ...
  • Бравый солдат Швейк / Dobry vojak Svejk (Карел Стеклы, комедия, военный, 19 ...
  • Швейк на фронте / Poslusne hlasim (Карел Стеклы, комедия, военный, 1957) [D ...
  • Огни рампы / Limelight (Чарльз Чаплин, драма, мелодрама, комедия, музыка, 1 ...
  • Где генерал? / Gdzie jest general… (Тадеуш Хмелевский, комедия, военный, 19 ...
  • Братья по крови / Blutsbruder (Вернер В. Валльрот, драма, вестерн, 1975) [D ...
  • На хуторе у леса / Na samote u lesa (Иржи Менцель, драма, комедия, семейный ...
  • Скандал в Клошмерле / Clochemerle (Пьер Шеналь, комедия, 1948) [DVDRip, Про ...
  • Бессмертная тетушка / Nesmrtelna teta (Зденек Зеленка, комедия, 1993) [DVDR ...
  • Информация
    Посетители, находящиеся в группе Гости, не могут оставлять комментарии к данной публикации.