вход на сайт

Имя пользователя :
Пароль :

Восстановление пароля Регистрация
Три балбеса / The Three Stooges (Бобби Фаррелли, Питер Фаррелли, Комедия, 2012) [HDRip, Профессиональный (многоголосый, закадровый)]
Рейтинг:
(голосов: 1)



[img]{THEME}/images/logopost.png[/img]



Три балбеса / The Three Stooges

Год выпуска: 2012
Страна: США
Производство: C3 Entertainment Inc., Conundrum Entertainment, Wessler Entertainment
Жанр: Комедия

Режиссёр: Бобби Фаррелли, Питер Фаррелли
В ролях: Шон Хейс, Уилл Сассо, Крис Диамантополос, Джейн Линч, София Вергара, Дженнифер Хадсон, Крэйг Бирко, Стивен Коллинз, Ларри Дэвид, Кирби Хэйборн

Перевод:Профессиональный (многоголосый, закадровый)
Субтитры: Нет

Описание: Подкидыши Ларри, Кёрли и Мо выросли если и не полными кретинами, то уж звезд с неба точно не хватали. Видимо, от большого ума они, задавшись высокой целью спасти дом своего детства, вляпались в неприятную историю с убийством и в то же время стали героями фантастически успешного реалити-шоу на ТВ.

КиноПоиск: 4.483 (405)
IMDB: 5.20 (11 453)

Качество: HDRip
Продолжительность: 01:32:04

Формат: AVI
Видео кодек: XviD
Аудио кодек: MP3
Видео: 640x352 (1.82:1), 23.976 fps, XviD build 50, ~922 kbps avg, 0.17 bit/pixel
Аудио: 48 kHz, MPEG Layer 3, 2 ch, ~128.00 kbps avg
MediaInfo ▼Text General
Complete name : D:Tri.balbesa.2012.P.HDRip.700MB.avi
Format : AVI
Format/Info : Audio Video Interleave
File size : 698 MiB
Duration : 1h 32mn
Overall bit rate : 1 059 Kbps
Movie name : T
Genre : C
Writing application : V
Original source form/Name : M
Video #0
ID : 0
Format : MPEG-4 Visual
Format profile : Advanced [email protected]
Format settings, BVOP : Yes
Format settings, QPel : No
Format settings, GMC : No warppoints
Format settings, Matrix : Default (MPEG)
Codec ID : XVID
Codec ID/Hint : XviD
Duration : 1h 32mn
Bit rate : 922 Kbps
Width : 640 pixels
Height : 352 pixels
Display aspect ratio : 16:9
Frame rate : 23.976 fps
Color space : YUV
Chroma subsampling : 4:2:0
Bit depth : 8 bits
Scan type : Progressive
Compression mode : Lossy
Bits/(Pixel*Frame) : 0.171
Stream size : 607 MiB (87%)
Writing library : XviD 1.2.1 (UTC 2008-12-04)
Audio #1
ID : 1
Format : MPEG Audio
Format version : Version 1
Format profile : Layer 3
Mode : Joint stereo
Mode extension : MS Stereo
Codec ID : 55
Codec ID/Hint : MP3
Duration : 1h 32mn
Bit rate mode : Constant
Bit rate : 128 Kbps
Channel(s) : 2 channels
Sampling rate : 48.0 KHz
Compression mode : Lossy
Stream size : 84.3 MiB (12%)
Alignment : Aligned on interleaves
Interleave, duration : 42 ms (1.00 video frame)
Interleave, preload duration : 504 ms


Стол заказов POWER | Отзывы | Вступление в POWER


b084061ff1acc95b5186c8c6591c84fb081a9dddТри балбеса / The Three Stooges (Бобби Фаррелли, Питер Фаррелли, Комедия, 2012) [HDRip, Профессиональный (многоголосый, закадровый)] Три балбеса / The Three Stooges (Бобби Фаррелли, Питер Фаррелли, Комедия, 2012) [HDRip, Профессиональный (многоголосый, закадровый)] " />

Аплоадер: Админ, дата: 19-09-2012, 01:05, торрент скачан: 359 раз

Понравилась раздача? Посмотрите эти:
  • Муви 43 / Movie 43 (Стивен Брилл, Питер Фаррелли, Элизабет БэнксСтивен, ком ...
  • Муви 43 / Movie 43 (Стивен Брилл, Питер Фаррелли, Элизабет БэнксСтивен, ком ...
  • Муви 43 / Movie 43 (Стивен Брилл, Питер Фаррелли, Элизабет БэнксСтивен, ком ...
  • Три балбеса / The Three Stooges (Бобби Фаррелли, Питер Фаррелли, Комедия, 2 ...
  • Молодежный чемпионат мира 2012 (U-20). Четвертьфинал: Россия - Чехия [02.01 ...
  • Чемпионат Испании 2011-12 / 36-й тур / Реал Мадрид - Севилья / НТВ+ [Футбол ...
  • Чемпионат Европы 2012 / Группа C / 1-й тур / Ирландия — Хорватия / ТРК Футб ...
  • Чемпионат Европы 2012 / Группа D / 1-й тур / Украина - Швеция / Спорт 1 [11 ...
  • Олимпиада 2012 / Мужчины / Группа D / 1-й тур / Испания — Япония / НТВ+ [Фу ...
  • Олимпиада 2012 / Футбол / Мужчины / Группа A / 3-й тур / Великобритания - У ...
  • Tank Feat. T.I. & Kris Stephens / Compliments [2012, RnB,Hip-Hop, HDRip]
  • Застрял в тебе / Stuck On You (Бобби Фаррелли, Питер Фаррелли, комедия, 200 ...
  • Девушка моих кошмаров / The Heartbreak Kid (Бобби Фаррелли, Питер Фаррелли, ...
  • Чемпионат Англии 2011-12 / 35 тур / Манчестер Юнайтед - Эвертон / Спорт 1 [ ...
  • Чемпионат Англии 2011-2012 / Championship / 45-й Тур / Обзор Матчей / НТВ+ ...
  • NBA Finals 2012 / Sportscenter / В преддверии 3-ей игры / Viasat Sport [Бас ...
  • NBA Finals 2012 / Sportscenter / Четвертая игра под микроскопом / Viasat Sp ...
  • Замёрзший мир / 2012: Ice Age (Трэвис Форт, фантастика, боевик, 2011) [HDRi ...
  • Товарищеский матч 2012 / АмаЗулу (ЮАР) - Манчестер Юнайтед (Англия) / MU TV ...
  • Чемпионат России 2012-13 / 1-й тур / Мордовия - Локомотив / НТВ+ [Футбол, 2 ...
  • Олимпиада 2012 / Женщины, Мужчины / Плавание / Квалификация / НТВ+ [30.07.2 ...
  • Три балбеса / The Three Stooges (Бобби Фаррелли, Питер Фаррелли, Комедия, 2 ...
  • Три балбеса / The Three Stooges (Бобби Фаррелли, Комедия, 2012) [480x256] [ ...
  • Три балбеса / The Three Stooges (Бобби Фаррелли, Питер Фаррелли, Комедия, 2 ...
  • Три балбеса / The Three Stooges (Бобби Фаррелли, Питер Фаррелли, Комедия, 2 ...
  • Информация
    Посетители, находящиеся в группе Гости, не могут оставлять комментарии к данной публикации.