вход на сайт

Имя пользователя :
Пароль :

Восстановление пароля Регистрация
Нереальный блокбастер / Disaster Movie (Джейсон Фридберг, Аарон Зельцер, комедия, пародия, 2008) [BDRip, Профессиональный (дублированный)]
Рейтинг:
(голосов: 1)



[img]{THEME}/images/logopost.png[/img]



Нереальный блокбастер / Disaster Movie

Cлоган: «Эл Гор был прав - потеплело глобально»

Год выпуска: 2008
Страна: США
Выпущено: Grosvenor Park Media
Жанр: комедия, пародия

Режиссёр: Джейсон Фридберг, Аарон Зельцер
В главных ролях: Кармен Электра, Мэтт Лантер, Ванесса Миннилло, Дж. Тэнг, Николь Паркер, Криста Флэнеган, Кимберли Кардашьян, Айк Баринхолц, Тони Кокс, Тэд Хилдженбринк

Перевод: Профессиональный (дублированный)
Субтитры: Нет

О фильме: Фильм o кoмичecкиx злoключeнияx гpyппы cмeшныx и пpивлeкaтeльныx мoлoдыx людeй. Зa oднy cyдьбoнocнyю нoчь, вo вpeмя кoтopoй им пpиxoдитcя пpeoдoлeть и пepeжить вceвoзмoжныe кaтacтpoфы пpиpoднoгo и cтиxиинoгo пpoиcxoждeния acтepoиды, cмepчи, зeмлeтpяceния, в oбщeм, вce, чтo oбpyшивaeтcя нa гopoд и oкaзывaeтcя y ниx нa пyти, oни дoлжны pacкpыть чepeдy тaйн, чтoбы cпacти миp oт тoтaльнoгo paзpyшeния.




Качество: BDRip
Продолжительность: 01:23:58
"Media Info" ▼Общее
Полное имя : D:VideoDisaster.Movie.2008.BDRip.avi
Формат : AVI
Формат/Информация : Audio Video Interleave
Размер файла : 1,46 Гбайт
Продолжительность : 1 ч. 23 м.
Общий поток : 2483 Кбит/сек
Программа кодирования : VirtualDubMod 1.5.10.3
Библиотека кодирования : VirtualDubMod build 2550/release

Видео
Идентификатор : 0
Формат : MPEG-4 Visual
Профиль формата : Advanced [email protected]
Параметр BVOP формата : 2
Параметр QPel формата : Нет
Параметр GMC формата : Без точки перехода
Параметр матрицы формата : Выборочная
Идентификатор кодека : XVID
Идентификатор кодека/Подсказка : XviD
Продолжительность : 1 ч. 23 м.
Битрейт : 2090 Кбит/сек
Ширина : 704 пикселя
Высота : 400 пикселей
Соотношение сторон : 16:9
Частота кадров : 25,000 кадров/сек
Цветовое пространство : YUV
Субдискретизация насыщенности : 4:2:0
Битовая глубина : 8 бит
Тип развёртки : Прогрессивная
Метод сжатия : С потерями
Бит/(Пиксели*Кадры) : 0.297
Размер потока : 1,23 Гбайт (84%)
Библиотека кодирования : XviD 65

Аудио
Идентификатор : 1
Формат : AC-3
Формат/Информация : Audio Coding 3
Расширение режима : CM (complete main)
Параметр Endianness формата : Big
Идентификатор кодека : 2000
Продолжительность : 1 ч. 23 м.
Вид битрейта : Постоянный
Битрейт : 384 Кбит/сек
Каналы : 6 каналов
Расположение каналов : Front: L C R, Side: L R, LFE
Частота : 48,0 КГц
Битовая глубина : 16 бит
Метод сжатия : С потерями
Размер потока : 230 Мбайт (15%)
Выравнивание : Разделение по промежуткам
Продолжительность промежутка : 40 мс. (1,00 видеокадр)
Время предзагрузки промежутка : 500 мс.
Формат: AVI
Видео кодек: XviD
Аудио кодек: AC3
Видео: 704x400 (1.76:1), 25 fps, XviD build 65 ~2090 kbps avg, 0.30 bit/pixel
Аудио: 48 kHz, AC3 Dolby Digital, 3/2 (L,C,R,l,r) + LFE ch, ~384 kbps


Наши рипы / Набор в РГ / Стол заказов РГ / Стол заказов по РИПам



6e1ce0b13d494ee6ebd6ce43764a7821040e1578Нереальный блокбастер / Disaster Movie (Джейсон Фридберг, Аарон Зельцер, комедия, пародия, 2008) [BDRip, Профессиональный (дублированный)] Нереальный блокбастер / Disaster Movie (Джейсон Фридберг, Аарон Зельцер, комедия, пародия, 2008) [BDRip, Профессиональный (дублированный)] " />

Аплоадер: Админ, дата: 12-08-2012, 13:49, торрент скачан: 359 раз

Понравилась раздача? Посмотрите эти:
  • Бойфренд из будущего / About Time (Ричард Кёртис, Фантастика, драма, комеди ...
  • Одноклассники 2 / Grown Ups 2 (Деннис Дуган, Комедия, 2013) [BDRip, Професс ...
  • Очень голодные игры / The Starving Games (Джейсон Фридберг, Аарон Зельцер, ...
  • Очень голодные игры / The Starving Games (Джейсон Фридберг, Аарон Зельцер, ...
  • Вампирский засос [Театральная версия] / Vampires Suck [Theatrical cut] (Дже ...
  • Кровью и потом: Анаболики / Pain & Gain (Майкл Бэй, криминал, комедия, трил ...
  • Даю год / I Give It a Year (Дэн Мазер, Мелодрама, комедия, 2013) [DVDRip, Д ...
  • Знакомство со спартанцами / Meet the Spartans (Джейсон Фридберг, Аарон Зель ...
  • Глушь / Resurrection County (Матт Зеттел, Ужасы,триллер, 2008) [DVDRip, Про ...
  • Легенда о МорДу / The Legend of MorDu (Брайан Ларсен, Короткометражный, ска ...
  • Кажется, я люблю свою жену / I Think I Love My Wife (Крис Рок, Драма, мелод ...
  • Идеальный Голос / Pitch Perfect (Джейсон Мур, Комедия, музыка, 2012) [HDRip ...
  • Нереальный блокбастер / Disaster Movie (Джейсон Фридберг, Аарон Зельцер, Ко ...
  • Вампирский засос / Vampires Suck (Джейсон Фридберг, Аарон Зельцер, комедия, ...
  • Вампирский засос / Vampires Suck (Джейсон Фридберг, Аарон Зельцер, комедия ...
  • Киносвидание / Date Movie (Джейсон Фридберг / Jason Friedberg, Аарон Зельце ...
  • Нереальный блокбастер / Disaster Movie (Джейсон Фридберг, Аарон Зельцер,Ком ...
  • Глаз шторма / The Eye of the Storm (Фред Скеписи, Драма, 2011) [HDRip, Проф ...
  • Человек из банки (Иван Кульнев, Комедия, 2012) [DVDRip, Не требуется]
  • Сдохни, Джон Такер / John Tucker Must Die (Бетти Томас, мелодрама, комедия, ...
  • Информация
    Посетители, находящиеся в группе Гости, не могут оставлять комментарии к данной публикации.