вход на сайт

Имя пользователя :
Пароль :

Восстановление пароля Регистрация
Нянь [Расширенная версия] / The Sitter [Unrated] (Дэвид Гордон Грин, Комедия, 2011) [BDRip, Авторский (одноголосый, закадровый)]
Рейтинг:
(голосов: 1)



[img]{THEME}/images/logopost.png[/img]



Нянь [Расширенная версия] / The Sitter [Unrated]

«Worst. Babysitter. Ever.»

Год выпуска: 2011
Страна: США
Производство: 20th Century Fox Film Corporation
Жанр: Комедия

Режиссёр: Дэвид Гордон Грин
В ролях:
Джона Хилл, Макс Рекордс, Эри Грейнор, Дж.Б. Смув, Сэм Рокуэлл, Ландри Бендер, Кевин Эрнандез, Кайли Банбери, Эрин Дэниелс, Д.В. Моффетт и др.

Перевод: Авторский (одноголосый, закадровый) - Антон Карповский
Субтитры: Отсутствуют

Описание:
Речь в картине пойдет об исключенном из колледжа юноше, которому приходится стать нянькой необычайно шаловливых детей, двух мальчиков и 8-летней неуправляемой девочки, живущих по соседству с его одинокой мамой, и провести с ними одну безумную ночь.
Качество: BDRip
Продолжительность: 01:27:04

Формат:AVI
Видео кодек: XviD
Аудио кодек: АС3
Видео: 704x384 (1.83:1), 23.976 fps, XviD build 65, 1941 kbps avg, 0.30 bit/pixel
Аудио : 48 kHz, AC3 Dolby Digital, 3/2 (L,C,R,l,r) + LFE ch, 448 kbps

"MediaInfo" ▼Format : AVI
Format/Info : Audio Video Interleave
File size : 1.46 GiB
Duration : 1h 27mn
Overall bit rate : 2 399 Kbps
Writing application : VirtualDubMod 1.5.10.2 (build 2540/release)
Writing library : VirtualDubMod build 2540/release

Video
ID : 0
Format : MPEG-4 Visual
Codec ID : XVID
Codec ID/Hint : XviD
Duration : 1h 27mn
Bit rate : 2 042 Kbps
Width : 704 pixels
Height : 384 pixels
Display aspect ratio : 16:9
Frame rate : 23.976 fps
Color space : YUV
Chroma subsampling : 4:2:0
Compression mode : Lossy
Bits/(Pixel*Frame) : 0.315
Stream size : 607 MiB (41%)

Audio
ID : 1
Format : AC-3
Format/Info : Audio Coding 3
Codec ID : 2000
Duration : 1h 27mn
Bit rate mode : Constant
Bit rate : 448 Kbps
Channel(s) : 6 channels
Sampling rate : 48.0 KHz
Compression mode : Lossy
Stream size : 133 MiB (9%)
Alignment : Aligned on interleaves
Interleave, duration : 42 ms (1.00 video frame)
Interleave, preload duration : 500 ms




29ededba319672a48c93f18408c49d15f88f11e0Нянь [Расширенная версия] / The Sitter [Unrated] (Дэвид Гордон Грин, Комедия, 2011) [BDRip, Авторский (одноголосый, закадровый)] Нянь [Расширенная версия] / The Sitter [Unrated] (Дэвид Гордон Грин, Комедия, 2011) [BDRip, Авторский (одноголосый, закадровый)] " />

Аплоадер: Админ, дата: 27-07-2012, 23:47, торрент скачан: 359 раз

Понравилась раздача? Посмотрите эти:
  • Копы в юбках [Расширенная версия] / The Heat [Unrated cut] (Пол Фиг, комеди ...
  • Ананасовый экспресс: Сижу, курю [Расширенная версия] / Pineapple Express [U ...
  • Мужество / Wymyk (Грег Зглински, драма, 2011) [DVDRip, Любительский (одного ...
  • Поймай толстуху, если сможешь [Театральная версия] / Identity Thief [Theatr ...
  • Укушенный (Полная версия) / Bitten (Unrated) (Харви Глейзер , Ужасы, комеди ...
  • Крепкий орешек: Хороший день, чтобы умереть [Расширенная версия] / A Good D ...
  • Игра смерти / Game of death (Роберт Клауз, Саммо Хунг Кам-Бо, Брюс Ли, боев ...
  • Псы войны / The Dogs of War (Джон Ирвин, боевик, драма, приключения, военны ...
  • Нянь / The Sitter (Дэвид Гордон Грин, Комедия, 2011) [BDRip-AVC, Профессион ...
  • Монстры на каникулах / Hotel Transylvania (Генндий Тартаковский, мультфильм ...
  • Нянь / The Sitter (Дэвид Гордон Грин, Комедия, 2011) [BDRip - AVC, Любитель ...
  • Ананасовый экспресс (Расширенная версия) / Pineapple Express (Extended Cut) ...
  • Ваше высочество / Храбрые перцем / Your Highness [Расширенная версия] (Дэви ...
  • [Трейлер] Нянь / The Sitter (Дэвид Гордон Грин, комедия) [HDTVRip, Любитель ...
  • Ваша Кайфовость / Your Highness (Дэвид Гордон Грин, комедия, пародия, фэнтэ ...
  • Ананасовый экспресс: Сижу, курю [Расширенная версия] / Pineapple Express [U ...
  • Диктатор [Расширенная версия] / The Dictator [UNRATED] (Ларри Чарльз, Комед ...
  • Храбрые перцем [Расширенная версия] / Your Highness [Unrated Version] (Дэви ...
  • Духовный боксер / Shen da (Лю Чя-Лян , Боевик, Драма, Комедия, 1975) [DVDRi ...
  • Третий лишний / Ted [Unrated] (Сет МакФарлейн, Фэнтези, комедия, 2012) [BDR ...
  • Сумерки.Сага.Затмение (Расширенная версия) /The Twilight Saga: Eclipse (Unr ...
  • Храбрые Перцем [Расширенная версия] / Your Highness [Unrated version] (Д ...
  • Попутчик / The Hitcher (Роберт Хармон, боевик, триллер, криминал, 1986) [DV ...
  • Американский пирог: Все в сборе [Расширенная версия] / American Reunion [UN ...
  • Евротур [Расширенная версия] / EuroTrip [UNRATED] (Джефф Шеффер, Алек Берг, ...
  • Информация
    Посетители, находящиеся в группе Гости, не могут оставлять комментарии к данной публикации.