вход на сайт

Имя пользователя :
Пароль :

Восстановление пароля Регистрация
Каждый хочет любить / Mes amis, mes amours (Лоррэйн Леви, Мелодрама, комедия, 2008) [DVDRip, Профессиональный (многоголосый, закадровый)]
Рейтинг:
(голосов: 1)



[img]{THEME}/images/logopost.png[/img]



Каждый хочет любить / Mes amis, mes amours

Год выпуска: 2008
Страна: Франция
Производство: Evidence Films
Жанр: Мелодрама, комедия

Режиссёр: Лоррэйн Леви / Lorraine Levy
В ролях: Венсан Линдон (Mathias), Паскаль Элбе (Antoine), Виржини Ледуайен (Audrey Morraine), Флоренс Форести (Sophie), Бернадетт Лафон (Yvonne), Мар Содуп (Valentine), Матиа Млекюз (Mac Enzie), Том Инверницци (Louis), Garance Le Guillermic (Emilie), Ричард Симс (John Glover), Sophie Guiter (Stéphanie), Лорен Леви (Le client de la librairie / Bookshop shopper)

Перевод: Профессиональный (многоголосый, закадровый)
Субтитры: нет

Описание: Двое лучших друзей - французы Антуан и Матиас, живут в Лондоне. Оба разведены, поддерживают добрые отношения с экс-супругами и оба воспитывают детей. Но деловой Антуан живет в этом городе уже много лет, а домосед Матиас только сейчас приехал туда из Парижа.
Понимая, что ему будет тяжело привыкнуть к новому месту, Матиас предлагает своему другу вспомнить их детскую мечту... и поселиться под одной крышей. Дети в восторге, женщины пожимают плечами, а друзья, расписав правила поведения в их общем доме, отважно бросаются в пучину странных семейных отношений...

IMDB: рейтинг 5.20 (350)
КиноПоиск: рейтинг 7.117 (602)


Качество:DVDRip
Продолжительность: 01:34:45 час.

Формат: AVI
Видео кодек: XviD
Аудио кодек: AC3
Видео: 704x384 (1,83:1), 25 fps, XviD build 65 ~1753 kbps avg, 0.26 bit/pixel
Аудио: 48 kHz, AC3 Dolby Digital, 3/2 (L,C,R,l,r) + LFE ch, ~448 kbps

"MI" ▼Общее
Полное имя : E:UsersТемирланDesktopФильмыKazhdyj.hochet.ljubit.2007.DVDRip.avi
Формат : AVI
Формат/Информация : Audio Video Interleave
Размер файла : 1,46 Гбайт
Продолжительность : 1 ч. 34 м.
Общий поток : 2211 Кбит/сек
Программа кодирования : VirtualDubMod 1.5.10.3 | www.virtualdub-fr.org || (build 2550/release)
Библиотека кодирования : VirtualDubMod build 2550/release

Видео
Идентификатор : 0
Формат : MPEG-4 Visual
Профиль формата : Advanced [email protected]
Параметр BVOP формата : 2
Параметр QPel формата : Нет
Параметр GMC формата : Без точки перехода
Параметр матрицы формата : Выборочная
Идентификатор кодека : XVID
Идентификатор кодека/Подсказка : XviD
Продолжительность : 1 ч. 34 м.
Битрейт : 1753 Кбит/сек
Ширина : 704 пикселя
Высота : 384 пикселя
Соотношение сторон : 1,83:1
Частота кадров : 25,000 кадров/сек
Цветовое пространство : YUV
Субдискретизация насыщенности : 4:2:0
Битовая глубина : 8 бит
Тип развёртки : Прогрессивная
Метод сжатия : С потерями
Бит/(Пиксели*Кадры) : 0.259
Размер потока : 1,16 Гбайт (79%)
Библиотека кодирования : XviD 65

Аудио
Идентификатор : 1
Формат : AC-3
Формат/Информация : Audio Coding 3
Расширение режима : CM (complete main)
Параметр Endianness формата : Big
Идентификатор кодека : 2000
Продолжительность : 1 ч. 34 м.
Вид битрейта : Постоянный
Битрейт : 448 Кбит/сек
Каналы : 6 каналов
Расположение каналов : Front: L C R, Side: L R, LFE
Частота : 48,0 КГц
Битовая глубина : 16 бит
Метод сжатия : С потерями
Размер потока : 304 Мбайт (20%)
Выравнивание : Разделение по промежуткам
Продолжительность промежутка : 40 мс. (1,00 видеокадр)
Время предзагрузки промежутка : 500 мс.



90e74e1367400bf973d7a3b5d1115aa1d2e265f1Каждый хочет любить / Mes amis, mes amours (Лоррэйн Леви, Мелодрама, комедия, 2008) [DVDRip, Профессиональный (многоголосый, закадровый)] Каждый хочет любить / Mes amis, mes amours (Лоррэйн Леви, Мелодрама, комедия, 2008) [DVDRip, Профессиональный (многоголосый, закадровый)] " />

Аплоадер: Админ, дата: 9-07-2012, 18:56, торрент скачан: 359 раз

Понравилась раздача? Посмотрите эти:
  • Бойфренд из будущего / About Time (Ричард Кёртис, Фантастика, драма, комеди ...
  • Одноклассники 2 / Grown Ups 2 (Деннис Дуган, Комедия, 2013) [BDRip, Професс ...
  • Миллион для чайников / The Brass Teapot (Рамаа Мосли, Фэнтези, триллер, ком ...
  • Даю год / I Give It a Year (Дэн Мазер, Мелодрама, комедия, 2013) [DVDRip, Д ...
  • Марсианская одиссея / Stranded (Мария Лидон, Фантастика, драма, 2001) [DVDR ...
  • Глушь / Resurrection County (Матт Зеттел, Ужасы,триллер, 2008) [DVDRip, Про ...
  • Двенадцать бедствий на Рождество / The 12 Disasters of Christmas (Стивен Р. ...
  • Жил-был тигр / Ek Tha Tiger (Кабир Кхан, боевик, триллер , 2012) [ HDRip, ...
  • Легенда о МорДу / The Legend of MorDu (Брайан Ларсен, Короткометражный, ска ...
  • Отбой / Taps (Харольд Беккер, Драма, 1981) [DVDRip, Профессиональный (много ...
  • Путешествие на дно моря / Voyage to the Bottom of the Sea (Ирвин Аллен / I ...
  • Кажется, я люблю свою жену / I Think I Love My Wife (Крис Рок, Драма, мелод ...
  • Кажется, я люблю свою жену / I Think I Love My Wife (Крис Рок, Драма, мелод ...
  • Темный сахар / Brown Sugar (Рик Фамуйива, Драма, мелодрама, комедия, музыка ...
  • Бог любви / God of Love (Люк Мэзени, Короткометражка, фэнтези, комедия, мел ...
  • Заместитель / Il supplente (Андреа Жублин, Короткометражка, комедия, 2007) ...
  • Покорить высоту / Take It to the Limit (Сэм Кит / Sam Kieth, семейный, 2000 ...
  • Боец из трущоб / Gutter King (Кейт Алан Моррис / Keith Alan Morris, боевик, ...
  • Кошмар / Nightmare / Qing Yan (Херман Яу, ужасы, триллер, 2012) [DVDRip, Лю ...
  • Нет мужчин - нет проблем / Without Men (Габриела Тальявини, Комедия, 2011) ...
  • Застенок / The Jailhouse (Билли Льюис, Ужасы, Триллер, Детектив, 2009) [DV ...
  • Глаз шторма / The Eye of the Storm (Фред Скеписи, Драма, 2011) [HDRip, Проф ...
  • Музыка внутри / Music Within (Стивен Савалич, Драма, мелодрама, комедия, во ...
  • Человек из банки (Иван Кульнев, Комедия, 2012) [DVDRip, Не требуется]
  • Сдохни, Джон Такер / John Tucker Must Die (Бетти Томас, мелодрама, комедия, ...
  • Информация
    Посетители, находящиеся в группе Гости, не могут оставлять комментарии к данной публикации.