вход на сайт

Имя пользователя :
Пароль :

Восстановление пароля Регистрация
Тамагочи (Андрей Бородин, Салтанат Мурзалинова-Яковлевар, Комедия, фантастика, драма, 2012) [WEB-DLRip, Не требуется]
Рейтинг:
(голосов: 1)



[img]{THEME}/images/logopost.png[/img]



Тамагочи


Год выпуска: 2012
Страна: Казахстан
Производство: 1337 Videos Studio
Жанр: Комедия, Фантастика, Драма

Режиссёр: Андрей Бородин, Салтанат Мурзалинова-Яковлева
В ролях:
Юлия Тейфель, Роман Романов, Тимур Ливазов, Екатерина Гамидова, Альжан Архабаев, Макпал Исакова, Максат Акпаров, Сергей Тейфель

Перевод: Не требуется
Субтитры: Нет

Описание:
Она - чайлд-фри. Настроена на саморазвитие и карьеру, ей нравится познавать мир, и в ее планах совершенно нет семьи и детей. Она не заводит даже животных, в ее квартире нет комнатных цветов. Ей нравится жить одной, ее пространство целиком и полностью подстроено под нее. Она - тренер в фитнесс-центре. Он - ее партнер по танцам. Планирует свое танцевальное шоу, и уже почти готов к созданию семьи. Впереди у Ники и Дэна - победа на Чемпионате по латиноамериканским танцам. И, конечно, только блеск, успех и... И еще один Он. Тамагочи. История начинается с того, что в квартире Ники появляется тамагочи. Сначала это электронная игрушка, которую надо поить и кормить по часам. Да что там ему просто нужно внимание! Но однажды Ника возвращается домой и застает незнакомца, который утверждает что он оживший Тамагочи. Это фильм о чувствах. О том, за что мы ценим людей, и кого мы хотим видеть рядом. Это фильм о том, как перестать быть электронной игрушкой в отношениях, и стать свободным для любви.


Качество: WEB-DLRip
Продолжительность: 01:06:50

Формат:AVI
Видео кодек: XviD
Аудио кодек: AC3
Видео: 720x400 (16:9), 23,976fps, XviD, 1231 kb/s avg, 0.178 bit/pixel
Аудио : 48 kHz, АС3, 224 kb/s (2 ch)


"MediaInfo" ▼General
Формат : AVI
Формат/Информация : Audio Video Interleave
Размер файла : 700 Мбайт
Продолжительность : 1 ч. 6 м.
Общий поток : 1464 Кбит/сек
Программа кодирования : VirtualDubMod 1.5.10.2 (build 2540/release)
Библиотека кодирования : VirtualDubMod build 2540/release

Видео
Идентификатор : 0
Формат : MPEG-4 Visual
Профиль формата : Advanced [email protected]
Параметр BVOP формата : 2
Параметр QPel формата : Нет
Параметр GMC формата : Без точки перехода
Параметр матрицы формата : Default (MPEG)
Идентификатор кодека : XVID
Идентификатор кодека/Подсказка : XviD
Продолжительность : 1 ч. 6 м.
Битрейт : 1231 Кбит/сек
Ширина : 720 пикселей
Высота : 400 пикселей
Соотношение сторон : 16:9
Частота кадров : 23,976 кадра/сек
Цветовое пространство : YUV
Субдискретизация насыщенности : 4:2:0
Битовая глубина : 8 бит
Тип развёртки : Прогрессивная
Метод сжатия : С потерями
Бит/(Пиксели*Кадры) : 0.178
Размер потока : 588 Мбайт (84%)
Библиотека кодирования : XviD 1.2.1 (UTC 2008-12-04)

Аудио
Идентификатор : 1
Формат : AC-3
Формат/Информация : Audio Coding 3
Расширение режима : CM (complete main)
Идентификатор кодека : 2000
Продолжительность : 1 ч. 6 м.
Вид битрейта : Постоянный
Битрейт : 224 Кбит/сек
Каналы : 2 канала
Расположение каналов : Front: L R
Частота : 48,0 КГц
Битовая глубина : 16 бит
Метод сжатия : С потерями
Размер потока : 107 Мбайт (15%)
Выравнивание : Разделение по промежуткам
Продолжительность промежутка : 42 мс. (1,00 видеокадр)
Время предзагрузки промежутка : 500 мс.




ab3afe0d275d90a6bcfe44f3e2d0721209edb7d8Тамагочи (Андрей Бородин, Салтанат Мурзалинова-Яковлевар, Комедия, фантастика, драма, 2012) [WEB-DLRip, Не требуется] Тамагочи (Андрей Бородин, Салтанат Мурзалинова-Яковлевар, Комедия, фантастика, драма, 2012) [WEB-DLRip, Не требуется] " />

Аплоадер: Админ, дата: 8-07-2012, 13:48, торрент скачан: 359 раз

Понравилась раздача? Посмотрите эти:
  • Бойфренд из будущего / About Time (Ричард Кёртис, Фантастика, драма, комеди ...
  • Одноклассники 2 / Grown Ups 2 (Деннис Дуган, Комедия, 2013) [BDRip, Професс ...
  • Паприка / Paprika // Фильм 1, эпизод 1 (из 1) (2006) [BDRip, профессиональн ...
  • Конец любви / The End of Love (Марк Веббер, драма, 2012) [WEB-DLRip, Профес ...
  • К черному морю (Андрей Тутышкин, мелодрама, комедия, 1957) [DVDRip, не треб ...
  • Рождённый свободным / The Colt (Елена Ланская, драма, боевик, история, 200 ...
  • Двенадцать бедствий на Рождество / The 12 Disasters of Christmas (Стивен Р. ...
  • Жил-был тигр / Ek Tha Tiger (Кабир Кхан, боевик, триллер , 2012) [ HDRip, ...
  • Легенда о МорДу / The Legend of MorDu (Брайан Ларсен, Короткометражный, ска ...
  • Путешествие на дно моря / Voyage to the Bottom of the Sea (Ирвин Аллен / I ...
  • Кажется, я люблю свою жену / I Think I Love My Wife (Крис Рок, Драма, мелод ...
  • Бог любви / God of Love (Люк Мэзени, Короткометражка, фэнтези, комедия, мел ...
  • Любовь по расписанию / Поезд (Сергей Мезенцев, мелодрама, 2012) [HDTVRip, Н ...
  • Вечерний Ургант // Сезон 2. Выпуск 62 (ТВ-шоу, 19.12.2012) [SATRip, Не треб ...
  • Вечерний Ургант // Сезон 2. Выпуск 63 (ТВ-шоу, 20.12.2012) [SATRip, Не треб ...
  • Заместитель / Il supplente (Андреа Жублин, Короткометражка, комедия, 2007) ...
  • Идеальный Голос / Pitch Perfect (Джейсон Мур, Комедия, музыка, 2012) [HDRip ...
  • Дорога на... / Road to (Таисия Игуменцева, Комедия, короткометражный, 2011) ...
  • А что насчет тебя? / How About You (Энтони Бирн, Драма, комедия, 2007) [DVD ...
  • Масс Эффект: Ушедший Герой / Mass Effect: Paragon Lost // Фильм 1 (из 1) ( ...
  • Гениальный папа / Father of Invention (Трент Купер, Драма, комедия, 2010) [ ...
  • Глаз шторма / The Eye of the Storm (Фред Скеписи, Драма, 2011) [HDRip, Проф ...
  • Андрей Рублев (Андрей Тарковский, Драма, история, 1966) [HDRip, Не требуетс ...
  • Человек из банки (Иван Кульнев, Комедия, 2012) [DVDRip, Не требуется]
  • Сдохни, Джон Такер / John Tucker Must Die (Бетти Томас, мелодрама, комедия, ...
  • Информация
    Посетители, находящиеся в группе Гости, не могут оставлять комментарии к данной публикации.