вход на сайт

Имя пользователя :
Пароль :

Восстановление пароля Регистрация
Нет мужчин - нет проблем / Without Men (Габриела Тальявини, Комедия, 2011) [HDRip, Профессиональный (многоголосый, закадровый) ]
Рейтинг:
(голосов: 1)



[img]{THEME}/images/logopost.png[/img]



Нет мужчин - нет проблем | Without Men



Год выпуска: 2011
Страна: США
Производство: Indalo Productions, Venus Films, Vini Films
Жанр: Комедия

Режиссёр: Габриела Тальявини / Gabriela Tagliavini
В ролях:
Ева Лонгория, Кристиан Слэйтер, Оскар Нунез, Кейт дель Кастилло, Ивет Йэтс, Мария Кончита Алонсо, Гильермо Диас, Пол Родригез, Камрин Менхейм.

Перевод: Профессиональный (многоголосый закадровый)
Субтитры: Отсутствуют

Описание:
Американский военный корреспондент Гордон рыщет по Латинской Америке в поисках сенсаций. И удача улыбается ему! Журналист узнает, что в одном богом забытом городке всех мужчин в одночасье забрали в партизанскую армию. Теперь их женам, сестрам и дочерям под предводительством очаровательной Розальбы приходится строить новый мир — мир без мужчин. И Гордон отправляется к месту событий… Качество: HDRip
Продолжительность: 01:26:46

Формат:AVI
Видео кодек: XviD
Аудио кодек: AC3
Видео: 704x400 (16:9), 23.976 fps, XviD, 2059 kbps avg, 0.305 bit/pixel
Аудио : 48 kHz, AC3 Dolby Digital, 3/2 (L,C,R,l,r) + LFE ch, 256 kbps avg

"MediaInfo" ▼General
Общее
Полное имя : D:Torrent RutrackerNet.muzhchin.net.problem.2011.MVO.XviD.AC3.HDRip._by.ZNG505_.avi
Формат : AVI
Формат/Информация : Audio Video Interleave
Размер файла : 1,41 Гбайт
Продолжительность : 1 ч. 26 м.
Общий поток : 2325 Кбит/сек
Программа кодирования : VirtualDubMod 1.5.10.3 | www.virtualdub-fr.org || (build 2550/release)
Библиотека кодирования : VirtualDubMod build 2550/release

Видео
Идентификатор : 0
Формат : MPEG-4 Visual
Профиль формата : Advanced [email protected]
Параметр BVOP формата : 1
Параметр QPel формата : Нет
Параметр GMC формата : Без точки перехода
Параметр матрицы формата : Выборочная
Идентификатор кодека : XVID
Идентификатор кодека/Подсказка : XviD
Продолжительность : 1 ч. 26 м.
Битрейт : 2059 Кбит/сек
Ширина : 704 пикселя
Высота : 400 пикселей
Соотношение сторон : 16:9
Частота кадров : 23,976 кадра/сек
Цветовое пространство : YUV
Субдискретизация насыщенности : 4:2:0
Битовая глубина : 8 бит
Тип развёртки : Прогрессивная
Метод сжатия : С потерями
Бит/(Пиксели*Кадры) : 0.305
Размер потока : 1,25 Гбайт (89%)
Библиотека кодирования : XviD 1.2.1 (UTC 2008-12-04)

Аудио
Идентификатор : 1
Формат : AC-3
Формат/Информация : Audio Coding 3
Расширение режима : CM (complete main)
Идентификатор кодека : 2000
Продолжительность : 1 ч. 26 м.
Вид битрейта : Постоянный
Битрейт : 256 Кбит/сек
Каналы : 6 каналов
Расположение каналов : Front: L C R, Side: L R, LFE
Частота : 48,0 КГц
Битовая глубина : 16 бит
Метод сжатия : С потерями
Размер потока : 159 Мбайт (11%)
Выравнивание : Разделение по промежуткам
Продолжительность промежутка : 42 мс. (1,00 видеокадр)
Время предзагрузки промежутка : 500 мс.




59ff93f1b67516e56c706e85fa6073f0ad6d437eНет мужчин - нет проблем / Without Men (Габриела Тальявини, Комедия, 2011) [HDRip, Профессиональный (многоголосый, закадровый) ] Нет мужчин - нет проблем / Without Men (Габриела Тальявини, Комедия, 2011) [HDRip, Профессиональный (многоголосый, закадровый) ] " />

Аплоадер: Админ, дата: 8-07-2012, 00:34, торрент скачан: 359 раз

Понравилась раздача? Посмотрите эти:
  • Одноклассники 2 / Grown Ups 2 (Деннис Дуган, Комедия, 2013) [BDRip, Професс ...
  • Прошлое / Le passé (Асгар Фархади, Драма, детектив , 2013) [HDRip, Авторски ...
  • Грязная кампания за честные выборы / The Campaign (Джей Роуч , Комедия,201 ...
  • Море, солнце и никакого секса / Sea, No Sex and Sun (Кристоф Тюрпен, комеди ...
  • Тонкий Лед / The Convincer (Джилл Шпрехер, драма, комедия, криминал, 2011) ...
  • Миллион для чайников / The Brass Teapot (Рамаа Мосли, Фэнтези, триллер, ком ...
  • Вот я какой/ Thats What I Am (Майкл Павоне, Драма, 2011) [HDRip, Профессион ...
  • Глушь / Resurrection County (Матт Зеттел, Ужасы,триллер, 2008) [DVDRip, Про ...
  • Жил-был тигр / Ek Tha Tiger (Кабир Кхан, боевик, триллер , 2012) [ HDRip, ...
  • Злые птицы: Хэллоуин / Angry Birds: HamOWeen (Джей Ройвайнен, Мультфильм, к ...
  • Отбой / Taps (Харольд Беккер, Драма, 1981) [DVDRip, Профессиональный (много ...
  • Путешествие на дно моря / Voyage to the Bottom of the Sea (Ирвин Аллен / I ...
  • Кажется, я люблю свою жену / I Think I Love My Wife (Крис Рок, Драма, мелод ...
  • Бог любви / God of Love (Люк Мэзени, Короткометражка, фэнтези, комедия, мел ...
  • Заместитель / Il supplente (Андреа Жублин, Короткометражка, комедия, 2007) ...
  • Идеальный Голос / Pitch Perfect (Джейсон Мур, Комедия, музыка, 2012) [HDRip ...
  • Покорить высоту / Take It to the Limit (Сэм Кит / Sam Kieth, семейный, 2000 ...
  • Боец из трущоб / Gutter King (Кейт Алан Моррис / Keith Alan Morris, боевик, ...
  • Привет, Джули! / Flipped (Роб Райнер, драма, мелодрама, комедия , 2010) [HD ...
  • Нет мужчин - нет проблем / Without Men (Габриела Тальявини, комедия, 2011)[ ...
  • Нет мужчин - нет проблем / Without Men (Габриела Тальявини, комедия, 2011)[ ...
  • Нет мужчин - нет проблем / Without Men (Габриела Тальявини / Gabriela Tagli ...
  • 100 миллионов евро / Les Tuche (Оливье Барру, комедия, 2011) [HDRip, Профе ...
  • Глаз шторма / The Eye of the Storm (Фред Скеписи, Драма, 2011) [HDRip, Проф ...
  • Человек из банки (Иван Кульнев, Комедия, 2012) [DVDRip, Не требуется]
  • Информация
    Посетители, находящиеся в группе Гости, не могут оставлять комментарии к данной публикации.