вход на сайт

Имя пользователя :
Пароль :

Восстановление пароля Регистрация
Человек-Мираж / Mirageman (Эрнесто Диаз Эспиноза, Комедия, боевик, криминал, 2007) [HDRip, Профессиональный (двухголосый, закадровый)]
Рейтинг:
(голосов: 1)



[img]{THEME}/images/logopost.png[/img]



Человек-Мираж / Mirageman

Год выпуска: 2007
Страна: США, Чили
Выпущено: Mandrill Films
Жанр: Комедия, боевик, криминал

Режиссёр: Эрнесто Диаз Эспиноза
В главных ролях: Марка Зарор, Мария Елена Свитт, Ариэль Мателюна, Маурисио Песутик, Иван Яра, Джек Арама, Эдуардо Кастро, Пабло Диаз, Хуан Пабло Миранда, Артуро Руис Тагл


Перевод: Профессиональный (двухголосый, закадровый)
Субтитры: Нет

О фильме: Он пришел, чтобы бороться со злом в любом его проявлении. У него нет никаких сверхвозможностей, а лишь надежда на собственные силы и знания!Ни мелкие хулиганы, ни крупные дельцы преступного мира — никто не уйдет от человека по прозвищу Мираж, данное ему за ловкость и молниеносность, потому что на его стороне правда и справедливость!




Качество: HDRip
Продолжительность: 01:24:00 час
"Media Info" ▼C:UsersÍóðáåêDownloadsMirageman.2007.HDRip.avi
General
Complete name : C:UsersÍóðáåêDownloadsMirageman.2007.HDRip.avi
Format : AVI
Format/Info : Audio Video Interleave
File size : 1.38 GiB
Duration : 1h 24mn
Overall bit rate : 2 349 Kbps
Writing application : VirtualDubMod 1.5.10.3 | www.virtualdub-fr.org || (build 2550/release)
Writing library : VirtualDub build 30009/release
Video #0
ID : 0
Format : MPEG-4 Visual
Format profile : [email protected]
Format settings, BVOP : No
Format settings, QPel : No
Format settings, GMC : No warppoints
Format settings, Matrix : Default (H.263)
Codec ID : XVID
Codec ID/Hint : XviD
Duration : 1h 24mn
Bit rate : 2 148 Kbps
Width : 720 pixels
Height : 400 pixels
Display aspect ratio : 16:9
Frame rate : 25.000 fps
Resolution : 8 bits
Colorimetry : 4:2:0
Scan type : Progressive
Bits/(Pixel*Frame) : 0.298
Stream size : 1.26 GiB (91%)
Writing library : Lavc52.119.1
Audio #1
ID : 1
Format : AC-3
Format/Info : Audio Coding 3
Format_Settings_ModeExtension : CM (complete main)
Codec ID : 2000
Duration : 1h 23mn
Bit rate mode : Constant
Bit rate : 192 Kbps
Channel(s) : 2 channels
Channel positions : Front: L R
Sampling rate : 48.0 KHz
Stream size : 115 MiB (8%)
Alignment : Split accross interleaves
Interleave, duration : 40 ms (1.00 video frame)
Interleave, preload duration : 500 ms
Формат: AVI
Видео кодек: XviD
Аудио кодек: АС3
Видео: 720x400, (16:9), 25.000 fps, XviD, 2 148 Kbps, 0.298 Bits/Pixel
Аудио: 48.0 KHz, АС3, 2 channel
260bd4dbf1b89a9763046787528530f5afb4e082Человек-Мираж / Mirageman (Эрнесто Диаз Эспиноза, Комедия, боевик, криминал, 2007) [HDRip, Профессиональный (двухголосый, закадровый)] Человек-Мираж / Mirageman (Эрнесто Диаз Эспиноза, Комедия, боевик, криминал, 2007) [HDRip, Профессиональный (двухголосый, закадровый)] " />

Аплоадер: Админ, дата: 5-06-2012, 23:21, торрент скачан: 359 раз

Понравилась раздача? Посмотрите эти:
  • Погнали! / Getaway (Кортни Соломон, Боевик, Криминал, 2013) [HDRip, Професс ...
  • Погнали! / Getaway (Кортни Соломон, Боевик,Криминал, 2013) [HDRip, Професси ...
  • Вирус / Flu (Ким Сон Су, Драма, 2013) [HDTVRip, Любительский (двухголосый з ...
  • Любовный треугольник / Two Girls and a Guy (Джеймс Тобэк, драма, комедия, 1 ...
  • Орудие смерти / A-i-deul... (Ли Гю Ман, Триллер, криминал, 2011) [DVDRip, П ...
  • Верное дельце / Une pure affaire (Александр Коффре, Боевик, Комедия, Кримин ...
  • Мои герои / Mes heros (Эрик Беснард, комедия, 2012) [HDRip, Профессиональны ...
  • Посылка / The Package (Джесси Джонсон, боевик, 2013) [HDRip, Профессиональн ...
  • Копы в юбках / The Heat [UNRATED] (Пол Фиг, комедия, криминал, боевик, дете ...
  • Школа «Диаз» / Diaz: Dont Clean Up This Blood (Даниэль Викари, драма, истор ...
  • Линия / La linea (Джеймс Коттен, Боевик, Триллер, Драма, Криминал, 2009) [H ...
  • Ночь тамплиера / Night of the Templar (Пол Сэмпсон, Ужасы, фантастика, боев ...
  • Псы войны / The Dogs of War (Джон Ирвин, боевик, драма, приключения, военны ...
  • Джефф, живущий дома / Jeff, Who Lives at Home (Джей Дюпласс, Марк Дюпласс, ...
  • Супер циклон / Super Cyclone (Лиз Адамс / Liz Adams, боевик, 2012) [HDRip, ...
  • Мистер Ганджубас / Mr. Nice (Бернард Роуз, Драма, комедия, 2010)[HDRip, Про ...
  • Временная петля / Los cronocrímenes (Начо Вигалондо, фантастика, боевик, тр ...
  • Трус / Faintheart (Вито Рокко, Комедия, 2008) [BDRip, Профессиональный (дву ...
  • Романтики / The Romantics (Галт Нидерхоффер, Драма, мелодрама, комедия, 201 ...
  • Мисс Март / Miss March (Тревор Мур, Комедия, 2009) [HDRip, Профессиональный ...
  • Замёрзший мир / 2012: Ice Age (Трэвис Форт, фантастика, боевик, 2011) [HDRi ...
  • Супершторм в Сиэтле / Seattle Superstorm (Джейсон Бурк, фантастика, боевик ...
  • Девушки в опасности / Damsels in Distress (Уит Стиллман, драма, мелодрама, ...
  • Искажение / Skew (Сейв Челенз, ужасы, триллер, 2011) [HDRip, Профессиональн ...
  • Ничего, кроме правды / Nothing But the Truth (Род Лури, триллер, драма, 200 ...
  • Информация
    Посетители, находящиеся в группе Гости, не могут оставлять комментарии к данной публикации.