вход на сайт

Имя пользователя :
Пароль :

Восстановление пароля Регистрация
Мисс Март / Miss March (Тревор Мур, Комедия, 2009) [HDRip, Профессиональный(двухголосый, закадровый) ]
Рейтинг:
(голосов: 1)



[img]{THEME}/images/logopost.png[/img]



Мисс Март / Miss March

Год выпуска: 2009
Страна: США
Производство: FOX Searchlight pictures
Жанр: Комедия

Режиссёр: Зэк Креггер, Тревор Мур
В ролях: Зэк Креггер, Тревор Мур, Рэкуэл Алесси, Молли Стэнтон, Крэйг Робинсон, Хью М. Хефнер, Карла Хименез, Седрик Ярброу, Джофф Мид, Слэйд Пирс

Перевод: Профессиональный(двухголосый, закадровый)
Субтитры: Нет

Описание: Фильм рассказывает историю молодого человека, который пробуждается от четырехлетней комы и узнает, что его девственно чистая школьная возлюбленная красуется на обложке мужского журнала. Он и его друг приняли решение участвовать в гонках на выживание в легендарном особняке штаб-квартиры журнала, чтобы отыграть девушку обратно.Качество: HDRip
Продолжительность: 01:33:33 час
"Media Info" ▼TextC:UsersÍóðáåêDownloadsMiss March.2009.HDRip.avi
General
Complete name : C:UsersÍóðáåêDownloadsMiss March.2009.HDRip.avi
Format : AVI
Format/Info : Audio Video Interleave
File size : 740 MiB
Duration : 1h 33mn
Overall bit rate : 1 105 Kbps
Video #0
ID : 0
Format : MPEG-4 Visual
Format profile : Advanced [email protected]
Format settings, BVOP : Yes
Format settings, QPel : No
Format settings, GMC : No warppoints
Format settings, Matrix : Default (MPEG)
Codec ID : XVID
Codec ID/Hint : XviD
Duration : 1h 33mn
Bit rate : 933 Kbps
Width : 688 pixels
Height : 368 pixels
Display aspect ratio : 1.870
Frame rate : 23.976 fps
Resolution : 8 bits
Colorimetry : 4:2:0
Scan type : Progressive
Bits/(Pixel*Frame) : 0.154
Stream size : 624 MiB (84%)
Writing library : XviD 1.2.1 (UTC 2008-12-04)
Audio #1
ID : 1
Format : MPEG Audio
Format version : Version 1
Format profile : Layer 3
Codec ID : 55
Codec ID/Hint : MP3
Duration : 1h 33mn
Bit rate mode : Constant
Bit rate : 160 Kbps
Channel(s) : 2 channels
Sampling rate : 44.1 KHz
Stream size : 107 MiB (14%)
Alignment : Aligned on interleaves
Interleave, duration : 26 ms (0.63 video frame)
Interleave, preload duration : 1017 ms
Title : Russian
Формат: AVI
Видео кодек: XviD
Аудио кодек: MP3
Видео: 688x368, (1.870), XviD, 24 fps, ~933 kbit/s, 0.154 Bits/(Pixel*Frame)
Аудио: MP3, 44,1 KHz, 2 channels, 160 kbit/s

Наши рипы/ Набор в РГ/ Стол заказов/ Стол заказов по РИПам



6388407a6b7a6a844ae7de26fa6c225dde0a58a6Мисс Март / Miss March (Тревор Мур, Комедия, 2009) [HDRip, Профессиональный(двухголосый, закадровый) ] Мисс Март / Miss March (Тревор Мур, Комедия, 2009) [HDRip, Профессиональный(двухголосый, закадровый) ] " />

Аплоадер: Админ, дата: 24-05-2012, 22:22, торрент скачан: 359 раз

Понравилась раздача? Посмотрите эти:
  • Погнали! / Getaway (Кортни Соломон, Боевик,Криминал, 2013) [HDRip, Професси ...
  • Чемпионат Италии 2012-13 / 36-й тур / Рома — Кьево / НТВ+ [07.05.2013, SD, ...
  • Игра смерти / Game of death (Роберт Клауз, Саммо Хунг Кам-Бо, Брюс Ли, боев ...
  • Новые парни турбо / New Kids Turbo (Штефен Хаарс, Боевик, комедия, 2010) [H ...
  • Формула 1 2011 / Этап 17 из 19 / Гран-При Индии / Гонка / Спорт 1 [30.10.20 ...
  • Чемпионат Европы 2012 / Группа C / 1-й тур / Ирландия — Хорватия / ТРК Футб ...
  • Чемпионат Европы 2012 / Группа D / 1-й тур / Украина - Швеция / Спорт 1 [11 ...
  • Олимпиада 2012 / Мужчины / Группа D / 1-й тур / Испания — Япония / НТВ+ [Фу ...
  • Tank Feat. T.I. & Kris Stephens / Compliments [2012, RnB,Hip-Hop, HDRip]
  • Маленький Николя / Le Petit Nicolas ( Лорен Тирар,комедия, семейный,2009 ) ...
  • Мифы и легенды: Новый альянс / Mitos y Leyendas La Nueva Alianza (Josй Luis ...
  • Неделя в NBA с В.Гомельским / НТВ+ [28.06.2011, SD, XviD, RU, SAT]
  • Задание / The Task (Алекс Оруэлл, Ужасы, 2010) [HDRip, Профессиональный (мн ...
  • Похищение / Rapt / Lösegeld (Люка Бельво, триллер, 2009) [HDRip, профессион ...
  • Мистер Ганджубас / Mr. Nice (Бернард Роуз, Драма, комедия, 2010)[HDRip, Про ...
  • Военные игры / War Games: At the End of the Day(Козимо Алема, Триллер, Ужас ...
  • Романтики / The Romantics (Галт Нидерхоффер, Драма, мелодрама, комедия, 201 ...
  • Человек-Мираж / Mirageman (Эрнесто Диаз Эспиноза, Комедия, боевик, криминал ...
  • Ангел зла / Evil Angel (Ричард Дачер, ужасы, триллер, 2009) [HDRip, Професс ...
  • Полусвет / Half Light (Крэйг Розенберг, Ужасы, триллер, драма, детектив, 20 ...
  • Товарищеский матч 2012 / АмаЗулу (ЮАР) - Манчестер Юнайтед (Англия) / MU TV ...
  • Олимпиада 2012 / Женщины, Мужчины / Плавание / Квалификация / НТВ+ [30.07.2 ...
  • Три балбеса / The Three Stooges (Бобби Фаррелли, Питер Фаррелли, Комедия, 2 ...
  • Искажение / Skew (Сейв Челенз, ужасы, триллер, 2011) [HDRip, Профессиональн ...
  • Ничего, кроме правды / Nothing But the Truth (Род Лури, триллер, драма, 200 ...
  • Информация
    Посетители, находящиеся в группе Гости, не могут оставлять комментарии к данной публикации.