вход на сайт

Имя пользователя :
Пароль :

Восстановление пароля Регистрация
Отель Парадизо / Guest House Paradiso (Эдриен Эдмондсон, Комедия, 1999) [DVDRip, Профессиональный (многоголосый, закадровый)]
Рейтинг:
(голосов: 1)



[img]{THEME}/images/logopost.png[/img]



♥ Отель Парадизо / Guest House Paradiso ♥

♥ Год выпуска: 1999
♥ Страна: Великобритания
♥ Производство: Universal pictures
♥ Жанр: Комедия

♥ Режиссёр: Эдриен Эдмондсон
♥ В ролях: Рик Мэйолл, Эдриен Эдмондсон, Венсан Кассель, Хелен Махью, Билл Найги, Саймон Пегг

♥ Перевод: Профессиональный (многоголосый, закадровый)
♥ Субтитры: Нет

♥ Описание: Если существует в мире самый худший отель, то это отель «Парадизо». В нем происходят совершенно невероятные вещи: вечно пьяный шеф-повар сам съедает все продукты, постояльцы уезжают не расплатившись, да и хозяева отеля Ричи и Эдди – люди весьма необычные. Но самые невероятные и забавные вещи начинают происходить тогда, когда в соседнем заливе всплывает брюхом кверху вся рыба.♥ Качество: DVDRip
♥ Продолжительность: 01:26:04 час
"Media Info" ▼TextD: Paradiso.1999.DVDRip îò Lebanon.avi
General
Complete name : D: Paradiso.1999.DVDRip îò Lebanon.avi
Format : AVI
Format/Info : Audio Video Interleave
File size : 677 MiB
Duration : 1h 26mn
Overall bit rate : 1 100 Kbps
Writing application : Nandub v1.0rc2
Writing library : Nandub build 1852/release
Video #0
ID : 0
Format : MPEG-4 Visual
Codec ID : DIV3
Codec ID/Hint : DivX 3 Low
Duration : 1h 26mn
Bit rate : 981 Kbps
Width : 640 pixels
Height : 272 pixels
Display aspect ratio : 2.35:1
Frame rate : 25.000 fps
Resolution : 8 bits
Bits/(Pixel*Frame) : 0.225
Stream size : 604 MiB (89%)
Audio #1
ID : 1
Format : MPEG Audio
Format version : Version 1
Format profile : Layer 3
Codec ID : 55
Codec ID/Hint : MP3
Duration : 1h 26mn
Bit rate mode : Variable
Bit rate : 106 Kbps
Nominal bit rate : 112 Kbps
Channel(s) : 2 channels
Sampling rate : 44.1 KHz
Stream size : 65.4 MiB (10%)
Alignment : Aligned on interleaves
Interleave, duration : 26 ms (0.65 video frame)
Interleave, preload duration : 479 ms
Writing library : LAME3.92
Encoding settings : -m s -V 4 -q 2 -lowpass 12.3 --abr 112
♥ Формат: AVI
♥ Видео кодек: DivX
♥ Аудио кодек: MPEG Layer 3
♥ Видео: 640x272, DivX, 25 fps, ~981 кб/с, 0.225 Bits/Pixel
♥ Аудио: 44.100 kHz, MPEG Layer 3, 2 channels, ~106 кб/с

Наши рипы/ Набор в РГ/ Стол заказов/ Стол заказов по РИПам


bfa1518b4475c3aca5b1abf2e7372c1aac6dcdacОтель Парадизо / Guest House Paradiso (Эдриен Эдмондсон, Комедия, 1999) [DVDRip, Профессиональный (многоголосый, закадровый)] Отель Парадизо / Guest House Paradiso (Эдриен Эдмондсон, Комедия, 1999) [DVDRip, Профессиональный (многоголосый, закадровый)] " />

Аплоадер: Админ, дата: 14-05-2012, 23:15, торрент скачан: 359 раз

Понравилась раздача? Посмотрите эти:
  • Погнали! / Getaway (Кортни Соломон, Боевик,Криминал, 2013) [HDRip, Професси ...
  • Мэрайа Мунди и шкатулка Мидаса / The Adventurer: The Curse of the Midas Box ...
  • Альбатрос / Albatross (Найал МакКормик, Драма, 2011) [DVDRip, Профессиональ ...
  • Игра смерти / Game of death (Роберт Клауз, Саммо Хунг Кам-Бо, Брюс Ли, боев ...
  • Псы войны / The Dogs of War (Джон Ирвин, боевик, драма, приключения, военны ...
  • [EN] Команда: На пути Аллаха / Takiye: Allah yolunda (2010, Бен Вербонг, тр ...
  • Один лжец в раю / Un bugiardo in paradiso (Энрико Олдоини, комедия, 1998) [ ...
  • Плохая актриса / Bad Actress (Роберт Ли Кинг, комедия, 2011) [DVDRip, Профе ...
  • Без всего / Sin ella (Джордже Колон, Мелодрама, 2010) [HDTVRip , Профессион ...
  • Эрик Викинг / Erik the Viking (Терри Джонс, фэнтези, комедия, приключения, ...
  • Мой парень – псих / Silver Linings Playbook (Дэвид О. Расселл, Драма, мелод ...
  • Формула 1 2011 / Этап 17 из 19 / Гран-При Индии / Гонка / Спорт 1 [30.10.20 ...
  • Чемпионат Европы 2012 / Группа D / 1-й тур / Украина - Швеция / Спорт 1 [11 ...
  • Маленький Николя / Le Petit Nicolas ( Лорен Тирар,комедия, семейный,2009 ) ...
  • Неделя в NBA с В.Гомельским / НТВ+ [28.06.2011, SD, XviD, RU, SAT]
  • Вскрытие инопланетянина/Alien Autopsy (Джонни Кэмпбелл, Комедия, фантастика ...
  • Чемпионат Англии 2011-2012 / Championship / 45-й Тур / Обзор Матчей / НТВ+ ...
  • Мистер Ганджубас / Mr. Nice (Бернард Роуз, Драма, комедия, 2010)[HDRip, Про ...
  • Романтики / The Romantics (Галт Нидерхоффер, Драма, мелодрама, комедия, 201 ...
  • Мисс Март / Miss March (Тревор Мур, Комедия, 2009) [HDRip, Профессиональный ...
  • Чемпионат Европы 2012 / Группа B / 1-й тур / Германия - Португалия / Спорт ...
  • Мгновение любви / Here (Браден Кинг, Драма, мелодрама, приключения, 2011) [ ...
  • Глушь / Resurrection County (Matt Zettell, ужасы, триллер, 2008) [DVDRip, П ...
  • Искажение / Skew (Сейв Челенз, ужасы, триллер, 2011) [HDRip, Профессиональн ...
  • Рука-убийца / Idle Hands (Родмен Флендер,ужасы, триллер, комедия, 1999) [HD ...
  • Информация
    Посетители, находящиеся в группе Гости, не могут оставлять комментарии к данной публикации.