вход на сайт

Имя пользователя :
Пароль :

Восстановление пароля Регистрация
Будь круче! / Be Cool (Ф. Гэри Грей, комедия, криминал, 2005) [BDRip, Дублированный]
Рейтинг:
(голосов: 1)



[img]{THEME}/images/logopost.png[/img]



Будь круче! / Be Cool

«Все хотят попасть в хит-парад»

Год выпуска: 2005
Страна: США
Производство: Metro Goldwyn Mayer
Жанр: Комедия, криминал

Режиссёр: Ф. Гэри Грей / F. Gary Gray
В ролях: Джон Траволта, Ума Турман, Винс Вон, Седрик «Развлекатель», Андре Бенджамин, Стивен Тайлер, Роберт Пасторелли, Кристина Милиан, Пол Адельштейн, Деби Мейзар, Дэнни ДеВито

Перевод: Дублированный
Субтитры: Нет

Описание
Чили Палмер возвращается. Гангстер, переквалифицировавшийся в кинопродюсера, решил не полагаться на неустойчивые доходы в киноиндустрии и занялся музыкальным бизнесом. Он ссорится с русской мафией и рэпперами-гангстерами и берет под свое крыло талантливую, но вздорную молодую певицу Линду Мун. Доп. информация
Премьеры ▼премьера (мир) 4 марта 2005
премьера (РФ) 7 апреля 2005, «Гемини Киномир»
релиз на Blu-Ray 19 мая 2011, «Двадцатый Век Фокс СНГ»
релиз на DVD 28 августа 2008, «Двадцатый Век Фокс СНГ»
Рейтинг MPAA ▼

Детям до 13 лет просмотр не желателен
Mediainfo ▼TextGeneral
Complete name : Будь круче!.avi
Format : AVI
Format/Info : Audio Video Interleave
File size : 747 MiB
Duration : 1h 59mn
Overall bit rate : 873 Kbps
Writing application : VirtualDubMod 1.5.10.2 (build 2540/release)
Writing library : VirtualDubMod build 2540/release

Video
ID : 0
Format : MPEG-4 Visual
Format profile : Advanced [email protected]
Format settings, BVOP : 1
Format settings, QPel : No
Format settings, GMC : No warppoints
Format settings, Matrix : Custom
Codec ID : XVID
Codec ID/Hint : XviD
Duration : 1h 59mn
Bit rate : 736 Kbps
Width : 688 pixels
Height : 288 pixels
Display aspect ratio : 2.40:1
Frame rate : 23.976 fps
Color space : YUV
Chroma subsampling : 4:2:0
Bit depth : 8 bits
Scan type : Progressive
Compression mode : Lossy
Bits/(Pixel*Frame) : 0.155
Stream size : 630 MiB (84%)
Writing library : XviD 1.2.1 (UTC 2008-12-04)

Audio
ID : 1
Format : MPEG Audio
Format version : Version 1
Format profile : Layer 3
Codec ID : 55
Codec ID/Hint : MP3
Duration : 1h 59mn
Bit rate mode : Constant
Bit rate : 128 Kbps
Channel(s) : 2 channels
Sampling rate : 48.0 KHz
Compression mode : Lossy
Stream size : 110 MiB (15%)
Alignment : Aligned on interleaves
Interleave, duration : 42 ms (1.00 video frame)
Interleave, preload duration : 504 ms
Writing library : LAME3.98r
Encoding settings : -m s -V 4 -q 2 -lowpass 17 -b 128[/ code]

Тех. данные
Качество: BDRip
Продолжительность: 01:59:36 час.

Формат: AVI
Видео кодек: XviD
Аудио кодек: MP3
Видео: 688x288 (2.39:1), 23.976 fps, XviD build 50, 735 kbps avg, 0.16 bit/pixel
Аудио: 48.0 kHz, MPEG Layer 3, 2/0 (L,R) ch, ~128 kbps - Профессиональный (полное дублирование) - язык русский



|Cтол заказов| Наши раздачи| Набор в группу| Сказать спасибо|


72ca21f8f14a48919d39c322a5b9c8ce93c3b1a3Будь круче! / Be Cool (Ф. Гэри Грей, комедия, криминал, 2005) [BDRip, Дублированный] Будь круче! / Be Cool (Ф. Гэри Грей, комедия, криминал, 2005) [BDRip, Дублированный] " />

Аплоадер: Админ, дата: 8-05-2012, 01:38, торрент скачан: 359 раз

Понравилась раздача? Посмотрите эти:
  • Непристойная комедия / InAPPropriate Comedy (Винс Оффер, комедия, 2013) [DV ...
  • Погнали! / Getaway (Кортни Соломон, Боевик,Криминал, 2013) [HDRip, Професси ...
  • Хладнокровная / Cold Blooded (Джейсон Лапейр, Триллер, криминал, 2012) [WEB ...
  • Решала (Роман Асхаев, Драма,Криминал, 2012) [WEB-DLRip, Не требуется]
  • Родительский беспредел / Parental Guidance (Энди Фикмен, комедия, семейный, ...
  • Игра смерти / Game of death (Роберт Клауз, Саммо Хунг Кам-Бо, Брюс Ли, боев ...
  • Будь круче! / Be Cool (Ф. Гэри Грей, комедия, криминал, 2005) [BD-Remux 10 ...
  • Скуби-Ду! Маска Синего Сокола / Scooby-Doo! Mask Of The Blue Falcon (Оливье ...
  • Лучший стрелок / Top Gun (Тони Скотт, боевик, драма, мелодрама, 1986) [BDRi ...
  • Будь круче / Be Cool (Ф.Гэри Грей, комедия, криминал, 2005) [HDTVRip, Профе ...
  • Новые парни турбо / New Kids Turbo (Штефен Хаарс, Боевик, комедия, 2010) [H ...
  • Захват / Carjacked (Джон Бонито, триллер, 2011)[BDRip, Профессиональный (мн ...
  • Мой парень – псих / Silver Linings Playbook (Дэвид О. Расселл, Драма, мелод ...
  • Чемпионат Европы 2012 / Группа D / 1-й тур / Украина - Швеция / Спорт 1 [11 ...
  • Папаша / Starbuck (Кен Скотт, Драма, комедия, 2011) [BDRip, Профессиональны ...
  • Неделя в NBA с В.Гомельским / НТВ+ [28.06.2011, SD, XviD, RU, SAT]
  • Семь дней на Земле / Meant to Be (Пол Брюлс, Мелодрама, Комедия, 2010) [DVD ...
  • Ключ от всех дверей / The Skeleton Key (Иэн Софтли, ужасы, 2005) [HDRip, Ду ...
  • Ресторан господина Септима / Le grand restaurant (Жак Бенар, комедия, крим ...
  • Чемпионат Европы 2012 / Группа B / 1-й тур / Германия - Португалия / Спорт ...
  • Мгновение любви / Here (Браден Кинг, Драма, мелодрама, приключения, 2011) [ ...
  • Глушь / Resurrection County (Matt Zettell, ужасы, триллер, 2008) [DVDRip, П ...
  • Будь круче! (Достать коротышку 2) / Be Cool (Ф. Гэри Грей, Комедия, кримина ...
  • Ничего, кроме правды / Nothing But the Truth (Род Лури, триллер, драма, 200 ...
  • Рука-убийца / Idle Hands (Родмен Флендер,ужасы, триллер, комедия, 1999) [HD ...
  • Информация
    Посетители, находящиеся в группе Гости, не могут оставлять комментарии к данной публикации.