вход на сайт

Имя пользователя :
Пароль :

Восстановление пароля Регистрация
Трус / Faintheart (Вито Рокко, Комедия, 2008) [BDRip, Профессиональный (двухголосый закадровый)]
Рейтинг:
(голосов: 1)



[img]{THEME}/images/logopost.png[/img]



Трус / Faintheart
«May The Norse Be With You»

Год выпуска: 2008
Страна: Великобритания
Производство: Vertigo Films
Жанр: комедия

Режиссёр: Вито Рокко
В ролях: Эдди Марсан, Юэн Бремнер, Джессика Хайнс, Брона Галлахер, Тим Хили, Пол Николлс, Энн Рейд, Джозеф Хэмилтон, Хлоя Хезар, Ричард Райдингс

Перевод: Профессиональный (двухголосый закадровый)
Субтитры: Отсутствуют

Описание: История неудачника, который проводит каждые выходные переодеваясь в викинга, из-за этого странного хобби он теряет жену и пытается затем вернуть ее обратно…



Автор рипа: dalemake

Качество: BDRip [FAINTHEART_BLURAY_DISC_BLUEBIRD]
Продолжительность: 01:30:28 час.

Формат: AVI
Видео кодек: XviD build 65
Аудио кодек: AC3 Dolby Digital
Видео: 720x304 (2.37:1), 25 fps, XviD build 65 ~2104 kbps avg, 0.38 bit/pixel
Аудио: 48 kHz, AC3 Dolby Digital, 2 ch, 192 kbps | Russian (DVO)

Премьера (мир): 20 сентября 2008
Mediainfo ▼General
Complete name : /Torrents/home/borodach/data/Trus_2008_BDRip_by_Dalemake.avi
Format : AVI
Format/Info : Audio Video Interleave
File size : 1.46 GiB
Duration : 1h 30mn
Overall bit rate : 2 307 Kbps
Writing application : VirtualDubMod 1.5.10.3 | www.virtualdub-fr.org || (build 2550/release)
Writing library : VirtualDubMod build 2550/release

Video
ID : 0
Format : MPEG-4 Visual
Format profile : Advanced [email protected]
Format settings, BVOP : 2
Format settings, QPel : No
Format settings, GMC : No warppoints
Format settings, Matrix : Custom
Codec ID : XVID
Codec ID/Hint : XviD
Duration : 1h 30mn
Bit rate : 2 105 Kbps
Width : 720 pixels
Height : 304 pixels
Display aspect ratio : 2.35:1
Frame rate : 25.000 fps
Color space : YUV
Chroma subsampling : 4:2:0
Bit depth : 8 bits
Scan type : Progressive
Compression mode : Lossy
Bits/(Pixel*Frame) : 0.385
Stream size : 1.33 GiB (91%)
Writing library : XviD 65

Audio
ID : 1
Format : AC-3
Format/Info : Audio Coding 3
Format profile : Dolby Digital
Mode extension : CM (complete main)
Codec ID : 2000
Duration : 1h 30mn
Bit rate mode : Constant
Bit rate : 192 Kbps
Channel(s) : 2 channels
Channel positions : Front: L R
Sampling rate : 48.0 KHz
Bit depth : 16 bits
Compression mode : Lossy
Stream size : 124 MiB (8%)
Alignment : Split accross interleaves
Interleave, duration : 40 ms (1.00 video frame)
Interleave, preload duration : 500 ms


e1f012d473ea4da5dba31602c68ef13fd8d39dceТрус / Faintheart (Вито Рокко, Комедия, 2008) [BDRip, Профессиональный (двухголосый закадровый)] Трус / Faintheart (Вито Рокко, Комедия, 2008) [BDRip, Профессиональный (двухголосый закадровый)] " />

Аплоадер: Админ, дата: 7-05-2012, 23:46, торрент скачан: 359 раз

Понравилась раздача? Посмотрите эти:
  • Вирус / Flu (Ким Сон Су, Драма, 2013) [HDTVRip, Любительский (двухголосый з ...
  • Парни что надо / The Right Stuff (Филип Кауфман, Фантастика, драма, приключ ...
  • Орудие смерти / A-i-deul... (Ли Гю Ман, Триллер, криминал, 2011) [DVDRip, П ...
  • Мои герои / Mes heros (Эрик Беснард, комедия, 2012) [HDRip, Профессиональны ...
  • Мужество / Wymyk (Грег Зглински, драма, 2011) [DVDRip, Любительский (одного ...
  • 42 / 42 (Брайан Хелгеленд, драма, биография, спорт, 2013) [BDRip, Профессио ...
  • Спайдервик: Хроники / The Spiderwick Chronicles (Марк С. Уотерс, Фэнтези, п ...
  • МЫ. Верим в любовь / W.E. (Мадонна, Драма, мелодрама, история, 2011) [BDRip ...
  • Псы войны / The Dogs of War (Джон Ирвин, боевик, драма, приключения, военны ...
  • Тюремщик / Screwed (Рег Тревисс / Reg Traviss, Драма, 2011) [DVDRip , Люби ...
  • Плохая актриса / Bad Actress (Роберт Ли Кинг, комедия, 2011) [DVDRip, Профе ...
  • Остановка 2: Не оглядывайся назад / Rest Stop: Dont Look Back (Шоун Папазян ...
  • Акулы пера / Soloalbum (Грегор Шнитцлер, мелодрама, комедия, 2003) [BDRip, ...
  • Джефф, живущий дома / Jeff, Who Lives at Home (Джей Дюпласс, Марк Дюпласс, ...
  • Джефф, живущий дома / Jeff, Who Lives at Home (Джей Дюпласс, Марк Дюпласс, ...
  • Захват / Carjacked (Джон Бонито, триллер, 2011)[BDRip, Профессиональный (мн ...
  • Дом вверх дном / Bringing Down the House (Адам Шенкман, комедия, 2003) [BDR ...
  • Последний отпуск / Last Holiday (Уэйн Ван, Драма, комедия, приключения, 200 ...
  • Временная петля / Los cronocrímenes (Начо Вигалондо, фантастика, боевик, тр ...
  • Ничего, кроме правды / Nothing But the Truth (Род Лури, триллер, драма, 200 ...
  • Информация
    Посетители, находящиеся в группе Гости, не могут оставлять комментарии к данной публикации.