вход на сайт

Имя пользователя :
Пароль :

Восстановление пароля Регистрация
Последний отпуск / Last Holiday (Уэйн Ван, Драма, комедия, приключения, 2006) [HDRip, Профессиональный (многоголосый закадровый)]
Рейтинг:
(голосов: 1)



[img]{THEME}/images/logopost.png[/img]



Последний отпуск / Last Holiday
«She Always Thought She Was Somebody... And She Was»

Год выпуска: 2006
Страна: США
Производство: Paramount Picture
Жанр: драма, комедия, приключения

Режиссёр: Уэйн Ван
В ролях: Куин Латифа, LL Кул Джей, Тимоти Хаттон, Джанкарло Эспозито, Алисия Уитт, Жерар Депардье, Джейн Адамс, Майкл Эстим, Сьюзэн Келлерман, Яша Вашингтон, Мэтт Росс, Майкл Нури

Перевод: Профессиональный (многоголосый закадровый)
Субтитры: Отсутствуют

Описание: Джорджия Берд работает скромным продавцом кухонной утвари. С ножами и кастрюлями она обращается, как заправский повар.

Однажды, неожиданно узнав о том, что дни ее сочтены, она решает реализовать свою давнюю мечту и отправляется на фешенебельный европейский курорт, где ее по ошибке принимают за богатую эксцентричную особу. Понимая, что ей нечего терять, Джорджия начинает себя вести чрезвычайно раскованно и вызывающе…



Качество: HDRip (Исходник: BDRip 720p)
Продолжительность: 01:51:36 час.

Формат: AVI
Видео кодек: XviD
Аудио кодек: AC3
Видео: 720x304 (2.35:1), 23.976 fps, XviD ~1 409 kbps, 0.269 bit/pixel
Аудио: 48 kHz, AC3, 6 ch, ~448.00 kbps avg | Russian (MVO)

Премьера (мир): 13 января 2006
Mediainfo ▼General
Complete name : /Torrents/home/borodach/data/Last Holiday.avi
Format : AVI
Format/Info : Audio Video Interleave
File size : 1.46 GiB
Duration : 1h 51mn
Overall bit rate : 1 867 Kbps
Writing application : VirtualDubMod 1.5.10.2 (build 2540/release)
Writing library : VirtualDubMod build 2540/release

Video
ID : 0
Format : MPEG-4 Visual
Format profile : Advanced [email protected]
Format settings, BVOP : 2
Format settings, QPel : No
Format settings, GMC : No warppoints
Format settings, Matrix : Default (MPEG)
Codec ID : XVID
Codec ID/Hint : XviD
Duration : 1h 51mn
Bit rate : 1 409 Kbps
Width : 720 pixels
Height : 304 pixels
Display aspect ratio : 2.35:1
Frame rate : 23.976 fps
Color space : YUV
Chroma subsampling : 4:2:0
Bit depth : 8 bits
Scan type : Progressive
Compression mode : Lossy
Bits/(Pixel*Frame) : 0.269
Stream size : 1.10 GiB (75%)
Writing library : XviD 1.2.1 (UTC 2008-12-04)

Audio
ID : 1
Format : AC-3
Format/Info : Audio Coding 3
Mode extension : CM (complete main)
Codec ID : 2000
Duration : 1h 51mn
Bit rate mode : Constant
Bit rate : 448 Kbps
Channel(s) : 6 channels
Channel positions : Front: L C R, Side: L R, LFE
Sampling rate : 48.0 KHz
Bit depth : 16 bits
Compression mode : Lossy
Stream size : 358 MiB (24%)
Alignment : Split accross interleaves
Interleave, duration : 42 ms (1.00 video frame)
Interleave, preload duration : 500 ms


40bd5f6bd45a2e64f76e1e6d032d9279bf110d26Последний отпуск / Last Holiday (Уэйн Ван, Драма, комедия, приключения, 2006) [HDRip, Профессиональный (многоголосый закадровый)] Последний отпуск / Last Holiday (Уэйн Ван, Драма, комедия, приключения, 2006) [HDRip, Профессиональный (многоголосый закадровый)] " />

Аплоадер: Админ, дата: 2-05-2012, 00:25, торрент скачан: 359 раз

Понравилась раздача? Посмотрите эти:
  • Погнали! / Getaway (Кортни Соломон, Боевик, Криминал, 2013) [HDRip, Професс ...
  • Верное дельце / Une pure affaire (Александр Коффре, Боевик, Комедия, Кримин ...
  • Мои герои / Mes heros (Эрик Беснард, комедия, 2012) [HDRip, Профессиональны ...
  • Мужество / Wymyk (Грег Зглински, драма, 2011) [DVDRip, Любительский (одного ...
  • 42 / 42 (Брайан Хелгеленд, драма, биография, спорт, 2013) [BDRip, Профессио ...
  • Сломленные / Broken (Руфус Норрис, драма, 2012) [HDRip, Профессиональный (м ...
  • Звук моего голоса / Sound of My Voice (Зал Батманглидж, триллер, драма, 201 ...
  • Безопасность не гарантируется / Safety Not Guaranteed (Колин Треворроу, фан ...
  • В хлам / Smashed (Джеймс Понсольдт, Драма, комедия, 2012) [HDRip, Профессио ...
  • Суперстар / Superstar (Ксавье Джианноли, Драма, комедия, 2012) [HDRip, Проф ...
  • Простые истины / Straight As (Джеймс Кокс, драма, комедия, 2013) [HDRip, П ...
  • Джефф, живущий дома / Jeff, Who Lives at Home (Джей Дюпласс, Марк Дюпласс, ...
  • Доля ангелов / The Angels Share (Кен Лоуч, драма, комедия, 2012) [HDRip, Пр ...
  • Джефф, живущий дома / Jeff, Who Lives at Home (Джей Дюпласс, Марк Дюпласс, ...
  • Супер циклон / Super Cyclone (Лиз Адамс / Liz Adams, боевик, 2012) [HDRip, ...
  • Последний отпуск / Last Holiday (Уэйн Ван, Драма, комедия, приключения, 200 ...
  • Супершторм в Сиэтле / Seattle Superstorm (Джейсон Бурк, фантастика, боевик ...
  • Три балбеса / The Three Stooges (Бобби Фаррелли, Питер Фаррелли, Комедия, 2 ...
  • Девушки в опасности / Damsels in Distress (Уит Стиллман, драма, мелодрама, ...
  • Глаз шторма / The Eye of the Storm (Фред Скеписи, Драма, 2011) [HDRip, Проф ...
  • Информация
    Посетители, находящиеся в группе Гости, не могут оставлять комментарии к данной публикации.