вход на сайт

Имя пользователя :
Пароль :

Восстановление пароля Регистрация
Стэп бай стэп (Игорь Коробейников, Комедия, 2011) [DVDRip, Не требуется]
Рейтинг:
(голосов: 1)



[img]{THEME}/images/logopost.png[/img]



Стэп бай стэп

Год выпуска: 2011
Страна: Россия
Производство: New Line Cinema
Жанр: Комедия

Режиссёр: Игорь Коробейников
В ролях: Анна Дарк, Максим Дрозд, Владимир Скворцов,Андрей Александрин, Эвелина Блёданс, Николай Бурлак, Юлия Беретта, Сергей Зарубин, Юрий Лагута, Олег Леушин

Перевод: Оригинальный [Лицензия]
Субтитры: Нет

Описание: Лера Ласковая, преподаватель школы искусств, отстаивая интересы студентов и коллег, вступает в неравный бой с Артемом Рудаковым, олигархом, привыкшим все подчинять своей воле и желанию. Молодая женщина, несмотря на угрозы и безнадежность ситуации, верит в справедливость и настоящие чувства. Ей удается объединить вокруг себя единомышленников и дать отпор «сильным мира сего».
Смешные и нелепые попытки Леры и её команды спасти Школу, непосредственность и наивность, вызывают у Артема Рудакова недоумение, а затем неподдельный интерес. Встретившись с Лерой, он понимает, что это та настоящая и единственная любовь, к которой он стремился всю жизнь, идя навстречу к ней шаг за шагом.


Ожидание: 39% (353)
КиноПоиск:3.90(73) рейтинг



Качество: DVDRip
Продолжительность: 01:41:10 час.

Формат: AVI
Видео кодек: XviD
Аудио кодек: AС3
Видео: 720x400 (1.80:1), 25 fps, XviD build 47 ~1599 kbps avg, 0.22 bit/pixel
Аудио: 48 kHz, AC3 Dolby Digital, 3/2 (L,C,R,l,r) + LFE ch, ~448 kbps
"Media Info" ▼ General
Complete name : Step.by.step.2011.O.DVDRip.avi
Format : AVI
Format/Info : Audio Video Interleave
File size : 1.37 GiB
Duration : 1h 41mn
Overall bit rate : 1 935 Kbps
Movie name : Step.by.step.2011.O.DVDRip
Genre : Comedy
Writing application : VirtualDubMod 1.5.10.2 (build 2540/release)
Original source form/Name : Movie

Video
ID : 0
Format : MPEG-4 Visual
Format profile : Advanced [email protected]
Format settings, BVOP : 2
Format settings, QPel : No
Format settings, GMC : No warppoints
Format settings, Matrix : Custom
Codec ID : XVID
Codec ID/Hint : XviD
Duration : 1h 41mn
Bit rate : 1 477 Kbps
Width : 720 pixels
Height : 400 pixels
Display aspect ratio : 16:9
Frame rate : 25.000 fps
Color space : YUV
Chroma subsampling : 4:2:0
Bit depth : 8 bits
Scan type : Progressive
Compression mode : Lossy
Bits/(Pixel*Frame) : 0.205
Stream size : 1.04 GiB (76%)
Writing library : XviD 1.2.0.dev47 (UTC 2006-11-01)

Audio
ID : 1
Format : AC-3
Format/Info : Audio Coding 3
Mode extension : CM (complete main)
Codec ID : 2000
Duration : 1h 41mn
Bit rate mode : Constant
Bit rate : 448 Kbps
Channel(s) : 6 channels
Channel positions : Front: L C R, Side: L R, LFE
Sampling rate : 48.0 KHz
Bit depth : 16 bits
Compression mode : Lossy
Stream size : 324 MiB (23%)
Alignment : Split accross interleaves
Interleave, duration : 40 ms (1.00 video frame)
Interleave, preload duration : 500 ms


423ffe3211a2226a690fd89c372f2a7de3bce7e7Стэп бай стэп (Игорь Коробейников, Комедия, 2011) [DVDRip, Не требуется] Стэп бай стэп (Игорь Коробейников, Комедия, 2011) [DVDRip, Не требуется] " />

Аплоадер: Админ, дата: 4-04-2012, 02:42, торрент скачан: 359 раз

Понравилась раздача? Посмотрите эти:
  • Готовые на всё / Workers - Pronti a tutto (Лоренцо Виньоло, Комедия, 2012) ...
  • Вирус / Flu (Ким Сон Су, Драма, 2013) [HDTVRip, Любительский (двухголосый з ...
  • Орудие смерти / A-i-deul... (Ли Гю Ман, Триллер, криминал, 2011) [DVDRip, П ...
  • Марафон (Карен Оганесян, комедия, 2013) [WEB-DLRip, Не требуется]
  • Верное дельце / Une pure affaire (Александр Коффре, Боевик, Комедия, Кримин ...
  • Икона сезона (Сергей Швыдкой,Драма, комедия, 2013) [DVDRip, Не требуется]
  • Мужество / Wymyk (Грег Зглински, драма, 2011) [DVDRip, Любительский (одного ...
  • Звук моего голоса / Sound of My Voice (Зал Батманглидж, триллер, драма, 201 ...
  • 23:59 / 23:59 (Гилберт Чан, Ужасы, 2011) [HDRip, Любительский (одноголосый ...
  • Тюремщик / Screwed (Рег Тревисс / Reg Traviss, Драма, 2011) [DVDRip , Люби ...
  • Воин / The One Warrior (Том Стаут, фантастика, 2011) [DVDRip,Оригинал,Профе ...
  • Плохая актриса / Bad Actress (Роберт Ли Кинг, комедия, 2011) [DVDRip, Профе ...
  • Дом ветра (Вячеслав Златопольский, Драма, 2011) [DVDRip, Не требуется]
  • Джефф, живущий дома / Jeff, Who Lives at Home (Джей Дюпласс, Марк Дюпласс, ...
  • Джефф, живущий дома / Jeff, Who Lives at Home (Джей Дюпласс, Марк Дюпласс, ...
  • Захват / Carjacked (Джон Бонито, триллер, 2011)[BDRip, Профессиональный (мн ...
  • Три богатыря на дальних берегах (Константин Феоктистов, мультфильм, комедия ...
  • Влюбленные (Валерий Бебко, Комедия, 2011) [DVDRip, Оригинал]
  • Стэп бай стэп (Игорь Коробейников, комедия, 2009) [DVDRip, Не требуется]
  • Девушки в опасности / Damsels in Distress (Уит Стиллман, драма, мелодрама, ...
  • Информация
    Посетители, находящиеся в группе Гости, не могут оставлять комментарии к данной публикации.