вход на сайт

Имя пользователя :
Пароль :

Восстановление пароля Регистрация
Очень страшное кино 4 / Scary Movie 4 [Unrated] (Дэвид Цукер , Комедия, 2006) [HDRip, Профессиональный (дублированный) со вставками любительской озвучки]
Рейтинг:
(голосов: 1)



[img]{THEME}/images/logopost.png[/img]



Очень страшное кино 4 / Scary Movie 4

Год выпуска: 2006
Страна: США
Производство: Dimension Films, Miramax Films, Brad Gray Pictures, 415 Project
Жанр: Комедия

Режиссёр: Дэвид Цукер
В ролях: Анна Фэрис, Реджина Холл, Чарли Шин, Энтони Андерсон, Крэйг Бирко, Лесли Нильсен, Филлип МакГроу, Кармен Электра, Крис Эллиотт, Кевин Харт, Холли Мэдисон, Джоанна Крупа, Шакил О’Нил, Кончита Кэмпбелл, Билл Пуллман, Клорис Личмен, Майкл Мэдсен, Саймон Рекс.

Перевод: Профессиональный (дублированный) со вставками любительской озвучки (danis92)
Субтитры: Отсутствуют

Описание: Журналистка Синди Кэмпбелл все еще не может оправиться после ужасных событий, произошедших с ней за последнее время. Чтобы сменить обстановку, она устраивается на работу сиделкой к пожилой женщине.

Вскоре Синди знакомится с овдовевшим соседом Томом Райаном и влюбляется в него. Казалось бы, жизнь начинает налаживаться, как вдруг на Землю высаживаются инопланетяне, которые хотят уничтожить все человечество. Том и Синди вступают в отчаянную схватку с пришельцами…



Качество: HDRip
Продолжительность: 01:29:32

Формат: AVI
Видео кодек: XviD
Аудио кодек: AС3
Видео: 720x384 (1.88:1), 23.976 fps, XviD MPEG-4 ~1869 kbps avg, 0.28 bit/pixel
Аудио: 48 kHz, AC3 Dolby Digital, 3/2 (L,C,R,l,r) + LFE ch, ~448 kbps

MediaInfo: ▼TextОбщее
Кол-во : 278
Кол-во потоков такого типа : 1
Тип потока : General
Тип потока : Общее
Идентификатор типа потока : 0
Inform : AVI: 1,46 Гбайт, 1 ч. 29 м.
Кол-во видеопотоков : 1
Кол-во аудиопотоков : 1
Video_Format_List : MPEG-4 Visual
Video_Format_WithHint_List : MPEG-4 Visual (XviD)
Видеокодеки : XviD
Audio_Format_List : AC-3
Audio_Format_WithHint_List : AC-3
Аудиокодеки : AC3
Полное имя : D:КазторкаРелизы для казторкиOchen.Strashnoe.Kino.4.2006.Unrated.HDRip[kaztorka.org].avi
Имя папки : D:КазторкаРелизы для казторки
Имя файла : Ochen.Strashnoe.Kino.4.2006.Unrated.HDRip[kaztorka.org]
Расширение : avi
Формат : AVI
Формат : AVI
Формат/Информация : Audio Video Interleave
Формат/Используется в : avi
Коммерческое название : AVI
Интернет-тип носителя : video/vnd.avi
Чередующаяся : Yes
Кодек : AVI
Кодек : AVI
Кодек/Информация : Audio Video Interleave
Кодек/Используется в : avi
Размер файла : 1562470400
Размер файла : 1,46 Гбайт
Размер файла : 1 Гбайт
Размер файла : 1,5 Гбайт
Размер файла : 1,46 Гбайт
Размер файла : 1,455 Гбайт
Продолжительность : 5372409
Продолжительность : 1 ч. 29 м.
Продолжительность : 1 ч. 29 м. 32 с. 409 мс.
Продолжительность : 1 ч. 29 м.
Продолжительность : 01:29:32.409
Общий поток : 2326658
Общий поток : 2327 Кбит/сек
Размер потока : 6301619
Размер потока : 6,01 Мбайт (0%)
Размер потока : 6 Мбайт
Размер потока : 6,0 Мбайт
Размер потока : 6,01 Мбайт
Размер потока : 6,010 Мбайт
Размер потока : 6,01 Мбайт (0%)
Пропорции потока : 0.00403
Режиссёр : Slim9174
Дата файла : UTC 2012-03-23 07:37:14.966
Дата файла (местная) : 2012-03-23 13:37:14.966
Дата изменения файла : UTC 2012-03-23 11:44:26.553
Дата изменения файла (местная) : 2012-03-23 17:44:26.553
Программа кодирования : VirtualDubMod 1.5.10.2 (build 2542/release)
Библиотека кодирования : VirtualDubMod build 2542/release
Библиотека кодирования : VirtualDubMod build 2542/release
Правообладатель : http://hqrips.do.am/

Видео
Кол-во : 205
Кол-во потоков такого типа : 1
Тип потока : Video
Тип потока : Видео
Идентификатор типа потока : 0
Inform : 1869 Кбит/сек, 720*384 (1,875), в 23,976 кадра/сек, MPEG-4 Visual (XviD) (Advanced [email protected]) (BVOP1 / Custom Matrix)
Идентификатор : 0
Идентификатор : 0
Формат : MPEG-4 Visual
Коммерческое название : MPEG-4 Visual
Профиль формата : Advanced [email protected]
Настройки формата : BVOP1 / Custom Matrix
Параметр BVOP формата : 1
Параметр BVOP формата : 1
Параметр QPel формата : No
Параметр QPel формата : Нет
Параметр GMC формата : 0
Параметр GMC формата : Без точки перехода
Параметр матрицы формата : Custom
Парам
c9c9e6cb8d4b0e177d4f296d14b7f89661b21309Очень страшное кино 4 / Scary Movie 4 [Unrated] (Дэвид Цукер , Комедия, 2006) [HDRip, Профессиональный (дублированный) со вставками любительской озвучки] Очень страшное кино 4 / Scary Movie 4 [Unrated] (Дэвид Цукер , Комедия, 2006) [HDRip, Профессиональный (дублированный) со вставками любительской озвучки] " />

Аплоадер: Админ, дата: 23-03-2012, 18:47, торрент скачан: 359 раз

Понравилась раздача? Посмотрите эти:
  • Одноклассники 2 / Grown Ups 2 (Деннис Дуган, Комедия, 2013) [BDRip, Професс ...
  • Грязная кампания за честные выборы / The Campaign (Джей Роуч , Комедия,201 ...
  • Очень страшное кино 5 / Scary Movie 5 (Малкольн Д. Ли, комедия, 2013) [BDRi ...
  • Очень страшное кино 4 (Расширенная версия) / Scary Movie 4 (Unrated) (Дэвид ...
  • Чемпионат Италии 2012-13 / 26-й тур / Интер - Милан / НТВ+ [Футбол, 24.02.2 ...
  • Потерянный рейс / United 93 (Пол Гринграсс, драма, криминал, история, 2006) ...
  • Жил-был тигр / Ek Tha Tiger (Кабир Кхан, боевик, триллер , 2012) [ HDRip, ...
  • Пути ненависти / Paths of Hate (Дамиан Ненов, мультфильм, короткометражка, ...
  • Бог любви / God of Love (Люк Мэзени, Короткометражка, фэнтези, комедия, мел ...
  • Катя Чехова & Vortex Involute / Жизнь [2008, House, Dram & Bass, WE ...
  • Очень страшное кино 4 / Scary Movie 4 (Дэвид Цукер, Комедия, 2006) [DVDRip, ...
  • Три банана (Михаил Ботов, Мультфильм, 1971) [SATRip, Не требуется]
  • Экстрасенсы ведут расследование // Сезон 3, Выпуск 2 (20) (Паранормальное ш ...
  • [NG] Мегазаводы: Уильямс F1 / Megafactories: Williams F1 (документальный, н ...
  • Очень страшное кино 3 / Scary Movie 3 (Дэвид Цукер, Комедия, 2003) [HDTVRip ...
  • Голый пистолет: из архивов полиции! / The Naked Gun: From the Files of Poli ...
  • Рассмеши комика // 3 сезон, 2 выпуск (ТВ-Шоу, Юмор, 24/03/2012) [SATRip, Ор ...
  • Comedy Club / Лучшее (ТВ-шоу, юмор, 07.04.2012) [IPTVRip, Не требуется]
  • Pitbull / Bon Bon [2010, Pop, HDRip]
  • Сдохни, Джон Такер / John Tucker Must Die (Бетти Томас, мелодрама, комедия, ...
  • Информация
    Посетители, находящиеся в группе Гости, не могут оставлять комментарии к данной публикации.