вход на сайт

Имя пользователя :
Пароль :

Восстановление пароля Регистрация
Голый пистолет: из архивов полиции! / The Naked Gun: From the Files of Police Squad! (Дэвид Цукер, Комедия, Криминал, Пародия, 1988) [HDRip, Профессиональный (многоголосый, закадровый)]
Рейтинг:
(голосов: 1)



[img]{THEME}/images/logopost.png[/img]



Голый пистолет: из архивов полиции! / The Naked Gun: From the Files of Police Squad!

Год выпуска: 1988
Страна: США
Производство: Paramount Pictures Corporation
Жанр: Боевик, Комедия, Криминал, Мелодрама, Пародия

Режиссёр: Дэвид Цукер
В ролях: Лесли Нильсен, Присцилла Пресли, Рикардо Монтальбан, Джордж Кеннеди, О. Джей Симпсон, Рэй Берк, Сюзан Бобьян, Нэнси Марчанд, Джаннетт Чарлз, Эд Уильямс, Джо Грифази, Лоуренс Тьерни

Перевод: Профессиональный (многоголосый, закадровый)
Субтитры: Отсутствуют

Описание: В самом начале мы встречаемся с Хомейни, Арафатом, Горбачевым, Иди Амином и Каддафи. А затем полицейский (Нильсен) разбирается с ними так лихо, как агенту 007 и не снилось, и за этим следует умопомрачительный каскад веселых приключений. Фильм очень, очень смешной, он пародирует и высмеивает все и вся. И это не удивительно, если вспомнить, цукеровские "Аэроплан", "Полицейскую академию" и "Мальчишник".



Качество: HDRip
Продолжительность: 1 ч. 24 м.

Формат: AVI
Видео кодек: XviD
Аудио кодек: MP3
Видео: 624x352 (1.77:1), 23.976 fps, XviD build 50 ~1081 kbps avg, 0.20 bit/pixel
Аудио: 48 kHz, MPEG Layer 3, 2 ch, ~128.00 kbps avg

MediaInfo: ▼TextОбщее
Кол-во : 278
Кол-во потоков такого типа : 1
Тип потока : General
Тип потока : Общее
Идентификатор типа потока : 0
Inform : AVI: 741 Мбайт, 1 ч. 24 м.
Кол-во видеопотоков : 1
Кол-во аудиопотоков : 1
Video_Format_List : MPEG-4 Visual
Video_Format_WithHint_List : MPEG-4 Visual (XviD)
Видеокодеки : XviD
Audio_Format_List : MPEG Audio
Audio_Format_WithHint_List : MPEG Audio (MP3)
Аудиокодеки : MPEG-1 Audio layer 3
Полное имя : D:КазторкаРелизы для казторкиGolyi_pistolet_1988_HDRip[kaztorka.org].avi
Имя папки : D:КазторкаРелизы для казторки
Имя файла : Golyi_pistolet_1988_HDRip[kaztorka.org]
Расширение : avi
Формат : AVI
Формат : AVI
Формат/Информация : Audio Video Interleave
Формат/Используется в : avi
Коммерческое название : AVI
Интернет-тип носителя : video/vnd.avi
Чередующаяся : Yes
Кодек : AVI
Кодек : AVI
Кодек/Информация : Audio Video Interleave
Кодек/Используется в : avi
Размер файла : 776945664
Размер файла : 741 Мбайт
Размер файла : 741 Мбайт
Размер файла : 741 Мбайт
Размер файла : 741 Мбайт
Размер файла : 741,0 Мбайт
Продолжительность : 5099904
Продолжительность : 1 ч. 24 м.
Продолжительность : 1 ч. 24 м. 59 с. 904 мс.
Продолжительность : 1 ч. 24 м.
Продолжительность : 01:24:59.904
Общий поток : 1218761
Общий поток : 1219 Кбит/сек
Размер потока : 5940396
Размер потока : 5,67 Мбайт (1%)
Размер потока : 6 Мбайт
Размер потока : 5,7 Мбайт
Размер потока : 5,67 Мбайт
Размер потока : 5,665 Мбайт
Размер потока : 5,67 Мбайт (1%)
Пропорции потока : 0.00765
Дата файла : UTC 2012-03-21 10:59:34.585
Дата файла (местная) : 2012-03-21 16:59:34.585
Дата изменения файла : UTC 2012-03-21 11:55:39.660
Дата изменения файла (местная) : 2012-03-21 17:55:39.660
Программа кодирования : VirtualDubMod 1.5.10.2 (build 2540/release)
Библиотека кодирования : VirtualDubMod build 2540/release
Библиотека кодирования : VirtualDubMod build 2540/release

Видео
Кол-во : 205
Кол-во потоков такого типа : 1
Тип потока : Video
Тип потока : Видео
Идентификатор типа потока : 0
Inform : 1081 Кбит/сек, 624*352 (16:9), в 23,976 кадра/сек, MPEG-4 Visual (XviD) (Advanced [email protected]) (BVOP1 / Custom Matrix)
Идентификатор : 0
Идентификатор : 0
Формат : MPEG-4 Visual
Коммерческое название : MPEG-4 Visual
Профиль формата : Advanced [email protected]
Настройки формата : BVOP1 / Custom Matrix
Параметр BVOP формата : 1
Параметр BVOP формата : 1
Параметр QPel формата : No
Параметр QPel формата : Нет
Параметр GMC формата : 0
Параметр GMC формата : Без точки перехода
Параметр матрицы формата : Custom
Параметр матрицы формата : Выборочная
Format_Settings_Matrix_Data : 080E0E0E0E0E0E0E0E0E0F0E0F0E0F0F0F0F0F0F0F1210111211101215131315151313151616171A171616191B1E1E1B191F2326231F282E2E28383D384C4C63 / 1313131
c1de51fdbc3860cfb87a08b3879c0ccf46936fa4Голый пистолет: из архивов полиции! / The Naked Gun: From the Files of Police Squad! (Дэвид Цукер, Комедия, Криминал, Пародия, 1988) [HDRip, Профессиональный (многоголосый, закадровый)] Голый пистолет: из архивов полиции! / The Naked Gun: From the Files of Police Squad! (Дэвид Цукер, Комедия, Криминал, Пародия, 1988) [HDRip, Профессиональный (многоголосый, закадровый)] " />

Аплоадер: Админ, дата: 21-03-2012, 18:04, торрент скачан: 359 раз

Понравилась раздача? Посмотрите эти:
  • Грязная кампания за честные выборы / The Campaign (Джей Роуч , Комедия,201 ...
  • Чемпионат Италии 2012-13 / 26-й тур / Интер - Милан / НТВ+ [Футбол, 24.02.2 ...
  • Блинки: Плохой робот / BlinkyTM (Рори Робинсон, короткометражка, ужасы, фан ...
  • [EN] Голый пистолет: из архивов полиции! / The Naked Gun: From the Files of ...
  • Вечернее платье / Tenue de soiree (Бертран Блие / Bertrand Blier, Драма, ко ...
  • Пути ненависти / Paths of Hate (Дамиан Ненов, мультфильм, короткометражка, ...
  • Голый пистолет: из архивов полиции! / The Naked Gun: From the Files of Poli ...
  • Бог любви / God of Love (Люк Мэзени, Короткометражка, фэнтези, комедия, мел ...
  • Заместитель / Il supplente (Андреа Жублин, Короткометражка, комедия, 2007) ...
  • Дорога на... / Road to (Таисия Игуменцева, Комедия, короткометражный, 2011) ...
  • Покорить высоту / Take It to the Limit (Сэм Кит / Sam Kieth, семейный, 2000 ...
  • Три банана (Михаил Ботов, Мультфильм, 1971) [SATRip, Не требуется]
  • Экстрасенсы ведут расследование // Сезон 3, Выпуск 2 (20) (Паранормальное ш ...
  • [NG] Мегазаводы: Уильямс F1 / Megafactories: Williams F1 (документальный, н ...
  • Очень страшное кино 3 / Scary Movie 3 (Дэвид Цукер, Комедия, 2003) [HDTVRip ...
  • Очень страшное кино 4 / Scary Movie 4 [Unrated] (Дэвид Цукер , Комедия, 200 ...
  • Рассмеши комика // 3 сезон, 2 выпуск (ТВ-Шоу, Юмор, 24/03/2012) [SATRip, Ор ...
  • Comedy Club / Лучшее (ТВ-шоу, юмор, 07.04.2012) [IPTVRip, Не требуется]
  • Пожирая живых / Ночь зомби / Zombie Night (Дэвид Дж. Фрэнсис, Ужасы, комеди ...
  • Pitbull / Bon Bon [2010, Pop, HDRip]
  • Информация
    Посетители, находящиеся в группе Гости, не могут оставлять комментарии к данной публикации.