вход на сайт

Имя пользователя :
Пароль :

Восстановление пароля Регистрация
Очень страшное кино 3 / Scary Movie 3 (Дэвид Цукер, Комедия, 2003) [HDTVRip, Полное дублирование]
Рейтинг:
(голосов: 1)



[img]{THEME}/images/logopost.png[/img]



Очень страшное кино 3 / Scary Movie 3

Год выпуска: 2003
Страна: США
Производство: Dimension Films, Brad Gray Pictures
Жанр: Комедия

Режиссёр: Дэвид Цукер
В ролях: Анна Фэрис, Реджина Холл, Эдди Гриффин, Лесли Нильсен, Дженни МакКарти, Энтони Андерсон, Кевин Харт, Чарли Шин, Мэрни Энг, Саймон Рекс, Джина Баллард, Джереми Пивен, Тимоти Стэк, Илэйн Климачевски, Памела Андерсон, Куин Латифа, Дениз Ричардс, Джордж Карлин, Кэмрин Мангейм.

Перевод: Полное дублирование
Субтитры: Отсутствуют

Описание: Журналистка Синди Кэмпбелл охвачена желанием сделать скандальный репортаж о каком-нибудь мировом заговоре и открыть самые секретные материалы! Кто ищет, тот всегда найдёт: вскоре Синди становится свидетельницей необъяснимых явлений.

На Землю вот-вот высадится десант зловещих инопланетян, на полях появились странные концентрические круги, некий Избранный пророчит нехорошее всему человечеству, дети со странными глазами пугают взрослых, под угрозой жизнь самого Президента, а амбициозные белые рэперы совершили подозрительный прорыв в мире шоу-бизнеса! Зло наступает со всех сторон, и Синди должна сражаться, чтобы спасти мир еще раз!



Качество: HDTVRip
Продолжительность: 1 ч. 13 м. 26 с. 0 мс.

Формат: AVI
Видео кодек: XviD
Аудио кодек: MP3
Видео: 656x368 (1.78:1), 25 fps, XviD MPEG-4 ~1181 kbps avg, 0.20 bit/pixel
Аудио: 48 kHz, MPEG Layer 3, 2 ch, ~134.15 kbps avg

MediaInfo: ▼TextОбщее
Кол-во : 278
Кол-во потоков такого типа : 1
Тип потока : General
Тип потока : Общее
Идентификатор типа потока : 0
Inform : AVI: 698 Мбайт, 1 ч. 13 м.
Кол-во видеопотоков : 1
Кол-во аудиопотоков : 1
Video_Format_List : MPEG-4 Visual
Video_Format_WithHint_List : MPEG-4 Visual (XviD)
Видеокодеки : XviD
Audio_Format_List : MPEG Audio
Audio_Format_WithHint_List : MPEG Audio (MP3)
Аудиокодеки : MPEG-1 Audio layer 3
Полное имя : D:КазторкаРелизы для казторкиScary Movie 3.XviD.HDTVRip.2003[kaztorka.org].avi
Имя папки : D:КазторкаРелизы для казторки
Имя файла : Scary Movie 3.XviD.HDTVRip.2003[kaztorka.org]
Расширение : avi
Формат : AVI
Формат : AVI
Формат/Информация : Audio Video Interleave
Формат/Используется в : avi
Коммерческое название : AVI
Интернет-тип носителя : video/vnd.avi
Чередующаяся : No
Кодек : AVI
Кодек : AVI
Кодек/Информация : Audio Video Interleave
Кодек/Используется в : avi
Размер файла : 732092416
Размер файла : 698 Мбайт
Размер файла : 698 Мбайт
Размер файла : 698 Мбайт
Размер файла : 698 Мбайт
Размер файла : 698,2 Мбайт
Продолжительность : 4406000
Продолжительность : 1 ч. 13 м.
Продолжительность : 1 ч. 13 м. 26 с. 0 мс.
Продолжительность : 1 ч. 13 м.
Продолжительность : 01:13:26.000
Режим общего битрейта : VBR
Режим общего битрейта : Переменный
Общий поток : 1329264
Общий поток : 1329 Кбит/сек
Размер потока : 7094772
Размер потока : 6,77 Мбайт (1%)
Размер потока : 7 Мбайт
Размер потока : 6,8 Мбайт
Размер потока : 6,77 Мбайт
Размер потока : 6,766 Мбайт
Размер потока : 6,77 Мбайт (1%)
Пропорции потока : 0.00969
Дата файла : UTC 2012-03-20 13:44:16.351
Дата файла (местная) : 2012-03-20 19:44:16.351
Дата изменения файла : UTC 2012-03-20 14:44:16.333
Дата изменения файла (местная) : 2012-03-20 20:44:16.333
Программа кодирования : VirtualDubMod 1.5.10.2 (build 2540/release)
Библиотека кодирования : VirtualDubMod build 2540/release
Библиотека кодирования : VirtualDubMod build 2540/release

Видео
Кол-во : 205
Кол-во потоков такого типа : 1
Тип потока : Video
Тип потока : Видео
Идентификатор типа потока : 0
Inform : 1182 Кбит/сек, 656*368 (16:9), в 25,000 кадров/сек, MPEG-4 Visual (XviD) (Сжатый битовый поток) (Advanced [email protected]) (BVOP2)
Идентификатор : 0
Идентификатор : 0
Формат : MPEG-4 Visual
Коммерческое название : MPEG-4 Visual
Профиль формата : Advanced [email protected]
Настройки формата : BVOP2
Параметр BVOP формата : 2
Параметр BVOP формата : 2
Параметр QPel формата : No
Параметр QPel формата : Нет
Парамет
83ff1c65d7d3bfb1c6473e833e4fbb1ce53f137dОчень страшное кино 3 / Scary Movie 3 (Дэвид Цукер, Комедия, 2003) [HDTVRip, Полное дублирование] Очень страшное кино 3 / Scary Movie 3 (Дэвид Цукер, Комедия, 2003) [HDTVRip, Полное дублирование] " />

Аплоадер: Админ, дата: 20-03-2012, 21:20, торрент скачан: 359 раз

Понравилась раздача? Посмотрите эти:
  • Очень страшное кино 3 / Scary Movie 3 (Дэвид Цукер, Комедия, 2003) [HDTVRip ...
  • Чемпионат Италии 2012-13 / 26-й тур / Интер - Милан / НТВ+ [Футбол, 24.02.2 ...
  • Пути ненависти / Paths of Hate (Дамиан Ненов, мультфильм, короткометражка, ...
  • Легенда о МорДу / The Legend of MorDu (Брайан Ларсен, Короткометражный, ска ...
  • Чемпионат Англии 2012-2013 / 18-й тур / Челси - Астон Вилла / Спорт 1 [23.1 ...
  • Бог любви / God of Love (Люк Мэзени, Короткометражка, фэнтези, комедия, мел ...
  • Любовь по расписанию / Поезд (Сергей Мезенцев, мелодрама, 2012) [HDTVRip, Н ...
  • Заместитель / Il supplente (Андреа Жублин, Короткометражка, комедия, 2007) ...
  • Дорога на... / Road to (Таисия Игуменцева, Комедия, короткометражный, 2011) ...
  • А что насчет тебя? / How About You (Энтони Бирн, Драма, комедия, 2007) [DVD ...
  • Очень страшное кино 1,2,3,4 [Квадрология] / Scary Movie 1,2,3,4 [Quadrilogy ...
  • Катя Чехова & Vortex Involute / Жизнь [2008, House, Dram & Bass, WE ...
  • Очень страшное кино 4 / Scary Movie 4 (Дэвид Цукер, Комедия, 2006) [DVDRip, ...
  • Детский душ / Baby Shower (Pablo Illanes, Ужасы, 2011) [DVDRip, Любительски ...
  • Очень страшное кино 1-4 [Квадрология] / Scary Movie 1-4 [Quadrilogy] (Кинен ...
  • Matt Darey feat Leah / Hold Your Breath (KhoMha Remix) [2012, Remix/Dance/T ...
  • Три банана (Михаил Ботов, Мультфильм, 1971) [SATRip, Не требуется]
  • Экстрасенсы ведут расследование // Сезон 3, Выпуск 2 (20) (Паранормальное ш ...
  • [NG] Мегазаводы: Уильямс F1 / Megafactories: Williams F1 (документальный, н ...
  • Голый пистолет: из архивов полиции! / The Naked Gun: From the Files of Poli ...
  • Очень страшное кино 4 / Scary Movie 4 [Unrated] (Дэвид Цукер , Комедия, 200 ...
  • Рассмеши комика // 3 сезон, 2 выпуск (ТВ-Шоу, Юмор, 24/03/2012) [SATRip, Ор ...
  • Comedy Club / Лучшее (ТВ-шоу, юмор, 07.04.2012) [IPTVRip, Не требуется]
  • Пожирая живых / Ночь зомби / Zombie Night (Дэвид Дж. Фрэнсис, Ужасы, комеди ...
  • Pitbull / Bon Bon [2010, Pop, HDRip]
  • Информация
    Посетители, находящиеся в группе Гости, не могут оставлять комментарии к данной публикации.