вход на сайт

Имя пользователя :
Пароль :

Восстановление пароля Регистрация
Семь дней на Земле / Meant to Be (Пол Брюлс, Мелодрама, Комедия, 2010) [DVDRip, Профессиональный (многоголосый, закадровый)]
Рейтинг:
(голосов: 1)



[img]{THEME}/images/logopost.png[/img]



Семь дней на Земле / Meant to Be

«This angel is about to fall...head over heels»

Год выпуска: 2010
Страна: Бельгия
Производство: Corrino Media Corporation
Жанр: Мелодрама, Комедия

Режиссёр: Пол Брюлс
В ролях: Келли Райлли, Джулиан Райнд-Татт, Сантьяго Кабрера, Миа Маэстро, Крис Маршалл, Мариса Альварес, Леонардо Кастро

Перевод: Профессиональный (многоголосый, закадровый)
Субтитры:Нет

Описание
Уилл! Он ангел-хранитель. Да-да, вы правильно подумали. Последние десять лет он оберегал от всяких бед и невзгод девушку Аманду. Работа ему очень нравилась, но вдруг он узнаёт, что больше не требуется её охранять. И он это воспринял с трудом, так как начал испытывать любовь к Аманде и ни за что не хотел бы с ней расставаться. Основная проблема была в том, что ангелам запрещено испытывать любовь. Уиллу не хочется, чтобы его Начальник узнал об этом, и у него появляется новое задание – влюбить в себя Аманду. Только всё усложняется тем, что она ничего не знает об Уилле, в то время как он знает о ней абсолютно всё.

IMDB: 4.80 (53)
Кинопоиск: 7.573 (75)

Доп. информация
Mediainfo ▼TextE:CinemaСемь дней на Земле.avi
General
Complete name : E:CinemaСемь дней на Земле.avi
Format : AVI
Format/Info : Audio Video Interleave
File size : 743 MiB
Duration : 1h 42mn
Overall bit rate : 1 014 Kbps
Writing application : VirtualDubMod 1.5.10.2 (build 2540/release)
Writing library : VirtualDubMod build 2540/release
Video #0
ID : 0
Format : MPEG-4 Visual
Format profile : Advanced [email protected]
Format settings, BVOP : 1
Format settings, QPel : No
Format settings, GMC : No warppoints
Format settings, Matrix : Custom
Codec ID : XVID
Codec ID/Hint : XviD
Duration : 1h 42mn
Bit rate : 876 Kbps
Width : 624 pixels
Height : 336 pixels
Display aspect ratio : 1.857
Frame rate : 25.000 fps
Color space : YUV
Chroma subsampling : 4:2:0
Bit depth : 8 bits
Scan type : Progressive
Compression mode : Lossy
Bits/(Pixel*Frame) : 0.167
Stream size : 642 MiB (86%)
Writing library : XviD 1.2.1 (UTC 2008-12-04)
Audio #1
ID : 1
Format : MPEG Audio
Format version : Version 1
Format profile : Layer 3
Codec ID : 55
Codec ID/Hint : MP3
Duration : 1h 42mn
Bit rate mode : Constant
Bit rate : 128 Kbps
Channel(s) : 2 channels
Sampling rate : 48.0 KHz
Compression mode : Lossy
Stream size : 93.8 MiB (13%)
Alignment : Aligned on interleaves
Interleave, duration : 40 ms (1.00 video frame)
Interleave, preload duration : 504 ms
Writing library : LAME3.97
Encoding settings : -m s -V 4 -q 2 -lowpass 17 -b 128[/ code]

Тех. данные
Качество: DVDRip
Продолжительность: 01:42:43

Формат: AVI
Видео кодек: XviD
Аудио кодек: MP3
Видео: 624x336 (1.86:1), 25 fps, XviD build 50 ~875 kbps avg, 0.17 bit/pixel
Аудио: 48 kHz, MPEG Layer 3, 2 ch, ~128.00 kbps avg


|Cтол заказов| Наши раздачи| Набор в группу| Сказать спасибо|


963fa2c8edb4c12681d0a21a91f6230537ed40ffСемь дней на Земле / Meant to Be (Пол Брюлс, Мелодрама, Комедия, 2010) [DVDRip, Профессиональный (многоголосый, закадровый)] Семь дней на Земле / Meant to Be (Пол Брюлс, Мелодрама, Комедия, 2010) [DVDRip, Профессиональный (многоголосый, закадровый)] " />

Аплоадер: Админ, дата: 26-02-2012, 12:03, торрент скачан: 359 раз

Понравилась раздача? Посмотрите эти:
  • Непристойная комедия / InAPPropriate Comedy (Винс Оффер, комедия, 2013) [DV ...
  • Готовые на всё / Workers - Pronti a tutto (Лоренцо Виньоло, Комедия, 2012) ...
  • Погнали! / Getaway (Кортни Соломон, Боевик,Криминал, 2013) [HDRip, Професси ...
  • Мужество / Wymyk (Грег Зглински, драма, 2011) [DVDRip, Любительский (одного ...
  • Лучший стрелок / Top Gun (Тони Скотт, боевик, драма, мелодрама, 1986) [BDRi ...
  • Псы войны / The Dogs of War (Джон Ирвин, боевик, драма, приключения, военны ...
  • Плохая актриса / Bad Actress (Роберт Ли Кинг, комедия, 2011) [DVDRip, Профе ...
  • Без всего / Sin ella (Джордже Колон, Мелодрама, 2010) [HDTVRip , Профессион ...
  • Эрик Викинг / Erik the Viking (Терри Джонс, фэнтези, комедия, приключения, ...
  • Мой парень – псих / Silver Linings Playbook (Дэвид О. Расселл, Драма, мелод ...
  • Чемпионат Европы 2012 / Группа D / 1-й тур / Украина - Швеция / Спорт 1 [11 ...
  • Tank Feat. T.I. & Kris Stephens / Compliments [2012, RnB,Hip-Hop, HDRip]
  • Яркая звезда / Bright Star (Джейн Кэмпион / Jane Campion) [2009, Биографиче ...
  • Неделя в NBA с В.Гомельским / НТВ+ [28.06.2011, SD, XviD, RU, SAT]
  • Семь дней на Земле / Meant to Be (Пол Брюлс, мелодрама, комедия, 2010) [DVD ...
  • Романтики / The Romantics (Галт Нидерхоффер, Драма, мелодрама, комедия, 201 ...
  • Чемпионат Европы 2012 / Группа B / 1-й тур / Германия - Португалия / Спорт ...
  • Замёрзший мир / 2012: Ice Age (Трэвис Форт, фантастика, боевик, 2011) [HDRi ...
  • Товарищеский матч 2012 / АмаЗулу (ЮАР) - Манчестер Юнайтед (Англия) / MU TV ...
  • Мгновение любви / Here (Браден Кинг, Драма, мелодрама, приключения, 2011) [ ...
  • Олимпиада 2012 / Женщины, Мужчины / Плавание / Квалификация / НТВ+ [30.07.2 ...
  • Девушки в опасности / Damsels in Distress (Уит Стиллман, драма, мелодрама, ...
  • Глушь / Resurrection County (Matt Zettell, ужасы, триллер, 2008) [DVDRip, П ...
  • Искажение / Skew (Сейв Челенз, ужасы, триллер, 2011) [HDRip, Профессиональн ...
  • Ничего, кроме правды / Nothing But the Truth (Род Лури, триллер, драма, 200 ...
  • Информация
    Посетители, находящиеся в группе Гости, не могут оставлять комментарии к данной публикации.