вход на сайт

Имя пользователя :
Пароль :

Восстановление пароля Регистрация
Новое платье Королевой (Дмитрий Томашпольский, комедия, 2012) [SATRip, Оригинал]
Рейтинг:
(голосов: 1)



[img]{THEME}/images/logopost.png[/img]



Новое платье Королевой

Год выпуска: 2012
Страна: Россия
Производство: "Мостелефильм Дистрибьюшн", "КиевТелеФильм"
Жанр: комедия

Режиссёр: Дмитрий Томашпольский
В ролях: Ольга Сухарева, Антон Семкин, Кирилл Нагиев, Светлана Чуйкина, Любава Грешнова, Марк Дробот, Николай Боклан, Олег Драч

Перевод: Оригинал
Субтитры: Нет

Описание: Сложно чувствовать себя королевой, работая в стоматологической клинике за три копейки… Странно быть серой мышкой, обладая такой красноречивой фамилией — Королева. Но Люся Королева именно такая — совершенно не умеет врать, полна комплексов и, конечно же, не замужем. Ее представление о счастье — это гламурная жизнь и любовь модного тусовщика — теннисиста Заборского.

Люся отправляется в Москву на семинар «Хочешь быть счастливым — будь им», на вокзале нечаянно забирает сумку модели Лосевой, и. . оказывается обладательницей волшебного платья. Преодолев смущение, Люся примеряет откровенный наряд и преображается до неузнаваемости.

Теперь она — счастливая, уверенная в себе девушка, для которой открыты все двери. Сможет ли она правильно распорядиться этим шансом и добиться успеха, или от соприкосновения с реальностью ее мечты превратятся в пыль?Качество: SATRip
Продолжительность: 01:26:37

Релиз от:

Формат: AVI
Видео кодек: XviD
Аудио кодек: MP3
Видео: 720x400 (16:9), 25,000fps, ~1 717 Kbps, 0.238 bit/pixel
Аудио: 48 kHz, 2 channels (Front: L R), 192 kbps
MediaInfo ▼Video
ID : 0
Format : MPEG-4 Visual
Codec ID : XVID
Codec ID/Hint : XviD
Duration : 1h 26mn
Bit rate : 1 717 Kbps
Width : 720 pixels
Height : 400 pixels
Display aspect ratio : 16:9
Frame rate : 25.000 fps
Color space : YUV
Chroma subsampling : 4:2:0
Compression mode : Lossy
Bits/(Pixel*Frame) : 0.238
Stream size : 1.04 GiB (86%)

Audio
ID : 1
Format : MPEG Audio
Codec ID : 55
Codec ID/Hint : MP3
Duration : 1h 26mn
Bit rate : 192 Kbps
Channel(s) : 2 channels
Sampling rate : 48.0 KHz
Compression mode : Lossy
Stream size : 119 MiB (10%)
Alignment : Aligned on interleaves





a1814df3c9fff688d7d679139833dbb391707bccНовое платье Королевой (Дмитрий Томашпольский, комедия, 2012) [SATRip, Оригинал] Новое платье Королевой (Дмитрий Томашпольский, комедия, 2012) [SATRip, Оригинал] " />

Аплоадер: Админ, дата: 14-01-2012, 15:17, торрент скачан: 359 раз

Понравилась раздача? Посмотрите эти:
  • Целуют всегда не тех (Дмитрий Томашпольский, Мелодрама, комедия, 2005) [DVD ...
  • Чемпионат Италии 2012-13 / 36-й тур / Рома — Кьево / НТВ+ [07.05.2013, SD, ...
  • Снукер / World Snooker Championship 2013 / Крусибл, Шеффилд / День 7 / Euro ...
  • Званый ужин (Разбитые мечты) (Фридрих Эрмлер, сатирическая комедия, коротко ...
  • Молодежный чемпионат мира 2012 (U-20). Четвертьфинал: Россия - Чехия [02.01 ...
  • Чемпионат Германии 2011-12 / 28-й тур / Боруссия Д - Штутгарт / НТВ+ [Футбо ...
  • Чемпионат Испании 2011-12 / 36-й тур / Реал Мадрид - Севилья / НТВ+ [Футбол ...
  • Олимпиада 2012 / Футбол / Мужчины / Группа A / 3-й тур / Великобритания - У ...
  • С новым годом, мамы! (Сарик Андреасян, Артем Аксененко, Дмитрий Грачев, ком ...
  • Майский дождь (Евгений Лаврентьев, мелодрама, комедия, 2012) [DVDRip, Не тр ...
  • Холостячки / Bachelorette (Лесли Хэдланд, комедия, 2012) [HDRip, Дубляж]
  • Real O / Платье (2009)
  • Ельцин. Три дня в августе (Александр Мохов, Драма, Исторический, 2011) [SAT ...
  • Свадьба по обмену (Дмитрий Грачев, комедия, мелодрама, 2011) [HDRip, Оригин ...
  • Превратности любви (Дмитрий Томашпольский, мелодрама, 2012) [SATRip, Не тре ...
  • Превратности любви (Дмитрий Томашпольский, мелодрама, 2011) [SATRip, Не тре ...
  • Новое платье Королевой (Дмитрий Томашпольский, комедия, 2012) [SATRip, Не т ...
  • Чемпионат Англии 2011-12 / 31 тур / Ньюкасл - Ливерпуль / Спорт 1 [Футбол, ...
  • Лига Чемпионов 2011-12 / 1/2 финала / Первый матч / Бавария (Германия) - Ре ...
  • Чемпионат Европы 2012 / Группа B / 1-й тур / Германия - Португалия / Спорт ...
  • Олимпийский квалификационный турнир 2012 / Венесуэла / Мужчины / Группа C / ...
  • Локомотив - время надежд / НТВ+ [Футбол, 19.07.2012, IPTV, RU]
  • Чемпионат России 2012-2013 / 1-й тур / Алания (Владикавказ) - Спартак (Моск ...
  • Олимпиада 2012 / Женщины, Мужчины / Плавание / Квалификация / НТВ+ [30.07.2 ...
  • (2012) Чай Вдвоем / Белое платье (Pop) [MP3, 320/CBR]
  • Информация
    Посетители, находящиеся в группе Гости, не могут оставлять комментарии к данной публикации.