вход на сайт

Имя пользователя :
Пароль :

Восстановление пароля Регистрация
Друг невесты / Made of Honor (Пол Вейланд / Paul Weiland, комедия, мелодрама, 2008г.) [BDRip, Дубляж]
Рейтинг:
(голосов: 1)



[img]{THEME}/images/logopost.png[/img]



Друг невесты / Made of Honor

Год выпуска:2008
Страна: США, Великобритания
Производство: Columbia Picture
Жанр: комедия, мелодрама

Режиссёр: Пол Вейланд / Paul Weiland
В ролях: Патрик Демпси / Patrick Dempsey, Мишель Монахэн / Michelle Monaghan, Кевин МакКидд / Kevin McKidd, Кадим Хардисон / Kadeem Hardison, Крис Мессина / Chris Messina, Ри*censored*нд Аркетт / Richmond Arquette, Бьюзи Филиппс / Busy Philipps, Уитни Каммингс / Whitney Cummings, Теа Эмили Нельсон / Emily Nelson, Кэтлин Куинлен / Kathleen Quinlan

Перевод: Профессиональный (полное дублирование)
Субтитры: Английские (внешние srt*)

Описание:Том — успешен, сексуален, пользуется успехом у женщин и всегда может положиться на свою лучшую подругу, очаровательную Ханну, единственного постоянного человека в его жизни. Женщина-друг — это прекрасно… Ханна, будучи другом, в курсе всех бед и радостей Тома. Совместные прогулки по Нью-Йорку и предугадывание милых сюрпризов. Но в один прекрасный момент, после командировки Ханы в Шотландию, Тома сражает на повал известие подруги о скорой свадьбе и просьба стать ее «подружкой невесты». Неохотно Том соглашается, но лишь для того, чтобы расстроить свадьбу и отвоевать Ханну у решительного богатого шотландца, покорившего ее сердце. Наконец-то, Том осознал, какие чувства испытывал к ней на самом деле! Пора действовать пока не поздно!

Знаете ли вы, что... ▼Съёмки проходили с апреля 2007 года в Будапеште, Лос-Анджелесе, Нью-Йорке, Англии и Шотландии.



MediaInfo ▼General
Complete name : Друг невесты[kaztorka.org]
Format : AVI
Format/Info : Audio Video Interleave
File size : 2.18 GiB
Duration : 1h 41mn
Overall bit rate : 3 079 Kbps
Movie name : Друг невесты[kaztorka.org]

Video
ID : 0
Format : MPEG-4 Visual
Format profile : Advanced [email protected]
Format settings, BVOP : 1
Format settings, QPel : No
Format settings, GMC : No warppoints
Format settings, Matrix : Custom
Codec ID :XVID
Codec ID/Hint : XviD
Duration : 1h 41mn
Bit rate : 2 050 Kbps
Width : 720 pixels
Height : 304 pixels
Display aspect ratio : 2.35:1
Frame rate : 23.976 fps
Color space : YUV
Chroma subsampling : 4:2:0
Bit depth : 8 bits
Scan type : Progressive
Compression mode : Lossy
Bits/(Pixel*Frame) : 0.391
Stream size : 1.45 GiB (67%)
Writing library : XviD 57

Audio #1
ID : 1
Format : AC-3
Format/Info : Audio Coding 3
Mode extension : CM (complete main)
Codec ID : 2000
Duration : 1h 41mn
Bit rate mode : Constant
Bit rate : 448 Kbps
Channel(s) : 6 channels
Channel positions : Front: L C R, Side: L R, LFE
Sampling rate : 48.0 KHz
Bit depth : 16 bits
Compression mode : Lossy
Stream size : 325 MiB (15%)
Alignment : Split accross interleaves

Audio #2
ID : 2
Format : AC-3
Format/Info : Audio Coding 3
Mode extension : CM (complete main)
Codec ID : 2000
Duration : 1h 41mn
Bit rate mode : Constant
Bit rate : 448 Kbps
Channel(s) : 6 channels
Channel positions : Front: L C R, Side: L R, LFE
Sampling rate : 48.0 KHz
Bit depth : 16 bits
Compression mode : Lossy
Stream size : 325 MiB (15%)
Alignment : Split accross interleaves


IMDB: 5.60(21210)
КиноПоиск: 7.07(7636)

Качество: BDRip
Продолжительность: 01:41:33 час.

Формат: AVI
Видео кодек: XviD
Аудио кодек: AС3
Видео: 720x304 (2.37:1), 23,976 fps, XviD build 57 ~2175 kbps avg, 0.41 bit/pixel
Аудио#1: Russian, 48 kHz, AC3, 3/2 (L,C,R,l,r) + LFE ch, ~448.00 kbps avg
Аудио#2: English, 48 kHz, AC3, 3/2 (L,C,R,l,r) + LFE ch, ~448.00 kbps avg

6e5a3bad6edf2bf5e78f2eee519c9815fa52d1e8Друг невесты / Made of Honor (Пол Вейланд / Paul Weiland, комедия, мелодрама, 2008г.) [BDRip, Дубляж] Друг невесты / Made of Honor (Пол Вейланд / Paul Weiland, комедия, мелодрама, 2008г.) [BDRip, Дубляж] " />

Аплоадер: Админ, дата: 13-01-2012, 03:07, торрент скачан: 359 раз

Понравилась раздача? Посмотрите эти:
  • Верное дельце / Une pure affaire (Александр Коффре, Боевик, Комедия, Кримин ...
  • Мои герои / Mes heros (Эрик Беснард, комедия, 2012) [HDRip, Профессиональны ...
  • Великий Гэтсби / The Great Gatsby (Баз Лурман, Драма, мелодрама, 2013) [BDR ...
  • Безумный Макс 3: Под куполом грома / Mad Max Beyond Thunderdome (Джордж Мил ...
  • [EN] 42 / 42 (Брайан Хелгеленд, Драма, биография, спорт, 2013) [BDRip, Ориг ...
  • Мужество / Wymyk (Грег Зглински, драма, 2011) [DVDRip, Любительский (одного ...
  • 42 / 42 (Брайан Хелгеленд, драма, биография, спорт, 2013) [BDRip, Профессио ...
  • Слабые проблески / Rushlights (Энтони Стац, Триллер, Мелодрама, Криминал, 2 ...
  • Неудержимый / Bullet to the Head (Уолтер Хилл, Боевик, триллер, криминал, 2 ...
  • Поймай толстуху, если сможешь [Театральная версия] / Identity Thief [Theatr ...
  • Звук моего голоса / Sound of My Voice (Зал Батманглидж, триллер, драма, 201 ...
  • Слепой поворот / Blind Turn (Роберт Орр, Триллер, драма, детектив, 2012) [W ...
  • 23:59 / 23:59 (Гилберт Чан, Ужасы, 2011) [HDRip, Любительский (одноголосый ...
  • Мужчина нарасхват / Playing for Keeps (Габриэле Муччино, Мелодрама, комедия ...
  • Весенние надежды / Hope Springs (Дэвид Фрэнкел, Драма, мелодрама, комедия, ...
  • Плохая актриса / Bad Actress (Роберт Ли Кинг, комедия, 2011) [DVDRip, Профе ...
  • Захват / Carjacked (Джон Бонито, триллер, 2011)[BDRip, Профессиональный (мн ...
  • Холостячки / Bachelorette (Лесли Хэдланд, комедия, 2012) [HDRip, Дубляж]
  • Друг невесты / Made of Honor (Пол Вейланд, комедия, мелодрама, 2008) [BDRip ...
  • Супершторм в Сиэтле / Seattle Superstorm (Джейсон Бурк, фантастика, боевик ...
  • Информация
    Посетители, находящиеся в группе Гости, не могут оставлять комментарии к данной публикации.