вход на сайт

Имя пользователя :
Пароль :

Восстановление пароля Регистрация
Нет мужчин - нет проблем / Without Men (Габриела Тальявини / Gabriela Tagliavini, комедия, 2011) [HDRip-AVC, Профессиональный (многоголосый закадровый) + Оригинал + Субтитры (eng)]
Рейтинг:
(голосов: 1)



[img]{THEME}/images/logopost.png[/img]



Нет мужчин - нет проблем | Without Men

Год выпуска: 2011
Страна: США
Производство: Indalo Productions, Venus Films, Vini Films
Жанр: комедия

Режиссёр: Габриела Тальявини / Gabriela Tagliavini
В ролях: Ева Лонгория, Кристиан Слэйтер, Оскар Нунез, Кейт дель Кастилло, Ивет Йэтс, Мария Кончита Алонсо, Гильермо Диас, Пол Родригез, Камрин Менхейм

Перевод: Профессиональный (многоголосый закадровый) [лицензия]
Субтитры: Английские [полные, UTF-8]

Описание: Американский военный корреспондент Гордон рыщет по Латинской Америке в поисках сенсаций. И удача улыбается ему! Журналист узнает, что в одном богом забытом городке всех мужчин в одночасье забрали в партизанскую армию. Теперь их женам, сестрам и дочерям под предводительством очаровательной Розальбы приходится строить новый мир — мир без мужчин. И Гордон отправляется к месту событий…Качество: HDRip-AVC [Рип с BDRip 720p]
Продолжительность: 01:26:46

Автор рипа: potroks

Формат: MKV
Видео кодек: x264
Аудио кодек: AC3
Видео: 1024x576 (16:9), 23,976 кадр/сек, 1945 Кбит/сек, 0.138 bit/pixel
Аудио1: AC3, 6 ch., 48 kHz, ~256.00 kbps | RUS
Аудио2: AC3, 2 ch., 48 kHz, ~192.00 kbps | ENG
MediaInfo ▼TextVideo
ID : 1
Format : AVC
Format/Info : Advanced Video Codec
Format profile : [email protected]
Format settings, CABAC : Yes
Format settings, ReFrames : 12 frames
Codec ID : V_MPEG4/ISO/AVC
Duration : 1h 26mn
Bit rate : 1 945 Kbps
Width : 1 024 pixels
Height : 576 pixels
Display aspect ratio : 16:9
Frame rate mode : Variable
Frame rate : 23.976 fps
Color space : YUV
Chroma subsampling : 4:2:0
Bit depth : 8 bits
Scan type : Progressive
Bits/(Pixel*Frame) : 0.138
Stream size : 1.15 GiB (79%)
Title : Net.Muzhchin.Net.Problem.2011.HDRip.x264.potroks
Writing library : x264 core 116 r2019M 9cc407d
Encoding settings : cabac=1 / ref=13 / deblock=1:-3:-3 / analyse=0x3:0x133 / me=umh / subme=10 / psy=1 / psy_rd=1.00:0.20 / mixed_ref=1 / me_range=32 / chroma_me=1 / trellis=2 / 8x8dct=1 / cqm=0 / deadzone=21,11 / fast_pskip=1 / chroma_qp_offset=-3 / threads=8 / sliced_threads=0 / nr=0 / decimate=1 / interlaced=0 / bluray_compat=0 / constrained_intra=0 / bframes=6 / b_pyramid=1 / b_adapt=2 / b_bias=0 / direct=3 / weightb=1 / open_gop=0 / weightp=2 / keyint=230 / keyint_min=23 / scenecut=40 / intra_refresh=0 / rc_lookahead=40 / rc=2pass / mbtree=1 / bitrate=1945 / ratetol=1.0 / qcomp=0.60 / qpmin=10 / qpmax=51 / qpstep=4 / cplxblur=20.0 / qblur=0.5 / ip_ratio=1.40 / aq=1:1.00
Language : English
Audio #1
ID : 2
Format : AC-3
Format/Info : Audio Coding 3
Mode extension : CM (complete main)
Codec ID : A_AC3
Duration : 1h 26mn
Bit rate mode : Constant
Bit rate : 256 Kbps
Channel(s) : 6 channels
Channel positions : Front: L C R, Side: L R, LFE
Sampling rate : 48.0 KHz
Bit depth : 16 bits
Compression mode : Lossy
Stream size : 159 MiB (11%)
Title : MVO R5
Language : Russian
Audio #2
ID : 3
Format : AC-3
Format/Info : Audio Coding 3
Mode extension : CM (complete main)
Codec ID : A_AC3
Duration : 1h 26mn
Bit rate mode : Constant
Bit rate : 192 Kbps
Channel(s) : 2 channels
Channel positions : Front: L R
Sampling rate : 48.0 KHz
Bit depth : 16 bits
Compression mode : Lossy
Stream size : 119 MiB (8%)
Title : Оригинал
Language : English
Text
ID : 4
Format : UTF-8
Codec ID : S_TEXT/UTF8
Codec ID/Info : UTF-8 Plain Text
Language : English





c28cc8e205c60cc5c46c83fe759972a902ed908cНет мужчин - нет проблем / Without Men (Габриела Тальявини / Gabriela Tagliavini, комедия, 2011) [HDRip-AVC, Профессиональный (многоголосый закадровый) + Оригинал + Субтитры (eng)] Нет мужчин - нет проблем / Without Men (Габриела Тальявини / Gabriela Tagliavini, комедия, 2011) [HDRip-AVC, Профессиональный (многоголосый закадровый) + Оригинал + Субтитры (eng)] " />

Аплоадер: Админ, дата: 27-12-2011, 16:55, торрент скачан: 359 раз

Понравилась раздача? Посмотрите эти:
  • За кадром... / In a World...(Лэйк Белл, комедия, 2013) [BDRip-AVC, Професси ...
  • Верное дельце / Une pure affaire (Александр Коффре, Боевик, Комедия, Кримин ...
  • Смерть на похоронах / Death at a Funeral (Нил ЛаБут, комедия, 2010) [BDRip ...
  • Запретная любовь / The Edge of Love (Джон Мэйбери, Драма, мелодрама, военны ...
  • Зубная фея 2 / Tooth Fairy 2 (Алекс Замм, комедия, семейный, 2012) [BDRip 7 ...
  • Убить по расписанию / Ticking Clock (Эрни Барбараш, фантастика, боевик, три ...
  • Шелуха / Husk (Бретт Симмонс, ужасы, триллер, 2011) [BDRip 720p, Профессион ...
  • Цельнометаллическая оболочка / Full Metal Jacket (Стэнли Кубрик, драма, вое ...
  • Властелин измерений / Grande ourse - La cle des possibles (Патрис Сов, фант ...
  • Персонаж / Stranger Than Fiction (Марк Форстер, Комедия, драма, фантастика, ...
  • Чаббчаббы спасают Рождество / The Chubbchubbs Save Xmas (Коуди Камерон, мул ...
  • Рыжий пес / Red Dog (Крив Стендерс, драма, комедия, семейный, 2011) [BDRip ...
  • Похищенная / A Lonely Place to Die (Джулиан Джилби, триллер, криминал, прик ...
  • Mylene Farmer / Du Temps [2011, Pop, HDTVRip]
  • Mylene Farmer / Bleu Noir [2011, Pop, HDTVRip]
  • Нет мужчин - нет проблем / Without Men (Габриела Тальявини, комедия, 2011)[ ...
  • Нет мужчин - нет проблем / Without Men (Габриела Тальявини, комедия, 2011)[ ...
  • Сверхновый Супермен / All-Star Superman (Сэм Лью, мультфильм, фантастика, б ...
  • Хостел 3 / Hostel: Part III (Скотт Спигел / Scott Spiegel, ужасы, триллер, ...
  • Нет мужчин - нет проблем / Without Men (Габриела Тальявини, Комедия, 2011) ...
  • Информация
    Посетители, находящиеся в группе Гости, не могут оставлять комментарии к данной публикации.