вход на сайт

Имя пользователя :
Пароль :

Восстановление пароля Регистрация
Пупупиду / Poupoupidou (Жеральд Юсташ-Матье, комедия, криминал, 2011) [DVDRip, Профессиональный (многоголосый, закадровый)]
Рейтинг:
(голосов: 1)



[img]{THEME}/images/logopost.png[/img]



«Пупупиду / Poupoupidou»

Год выпуска: 2011
Страна: Франция
Производство: Canal+ [fr], France 2 Cinema
Жанр: комедия, криминал

Режиссёр: Жеральд Юсташ-Матье
В ролях: Жан-Поль Рув, Софи Куинтон, Гийом Гуи, Оливье Рабурден, Арсинэ Ханджян, Эрик Руф, Лье Салем, Жозефин де Мо, Кен Сэмюэлс

Перевод: Профессиональный (многоголосый, закадровый)
Озвучка: не известно
Субтитры:нет

Описание
Давид Руссо — довольно известный в Париже писатель. Кандис Лесёр — красивая блондинка родом из французской провинции, убеждённая в том, что в прошлой жизни она была Мэрилин Монро. Они снова встретятся в Муте, самом холодном городишке Франции: он − в полном творческом упадке, она − уже мертвая. «Самоубийство», − сказано в полицейском заключении, − Предположительно, от снотворного». Но Давид Руссо так не считает. Погружаясь в прошлое Кандис Лекёр, он находит вдохновение для нового романа…

» IMDB-рейтинг:6.90 (274)

» КиноПоиск-рейтинг:6.650 (43)

» Скачать сэмпл


Доп. информация
Премьеры ▼премьера (мир) 12 января 2011
премьера (РФ)8 декабря 2011, «P&I Films»

Mediainfo ▼TextОбщее
Полное имя : D:DownloadsПупупиду.2011.P.DVDRip.700MB.avi
Формат : AVI
Формат/Информация : Audio Video Interleave
Размер файла : 704 Мбайт
Продолжительность : 1 ч. 38 м.
Общий поток : 996 Кбит/сек
Программа кодирования : VirtualDubMod 1.5.10.2 (build 2540/release)
Библиотека кодирования : VirtualDubMod build 2540/release

Видео
Идентификатор : 0
Формат : MPEG-4 Visual
Профиль формата : Advanced [email protected]
Параметр BVOP формата : 1
Параметр QPel формата : Нет
Параметр GMC формата : Без точки перехода
Параметр матрицы формата : Выборочная
Идентификатор кодека : XVID
Идентификатор кодека/Подсказка : XviD
Продолжительность : 1 ч. 38 м.
Битрейт : 858 Кбит/сек
Ширина : 640 пикс.
Высота : 272 пикс.
Соотношение сторон : 2,35:1
Частота кадров : 25,000 кадр/сек
Цветовое пространство : YUV
Подвыборка цветности : 4:2:0
Битовая глубина : 8 бит
Тип развёртки : Прогрессивная
Метод сжатия : С потерями
Бит/(Пиксели*Кадры) : 0.197
Размер потока : 607 Мбайт (86%)
Библиотека кодирования : XviD 1.2.1 (UTC 2008-12-04)

Аудио
Идентификатор : 1
Формат : MPEG Audio
Версия формата : Version 1
Профиль формата : Layer 3
Режим : Joint stereo
Расширение режима : MS Stereo
Идентификатор кодека : 55
Идентификатор кодека/Подсказка : MP3
Продолжительность : 1 ч. 38 м.
Вид битрейта : Постоянный
Битрейт : 128 Кбит/сек
Канал(ы) : 2 канала(ов)
Частота : 48,0 КГц
Метод сжатия : С потерями
Размер потока : 90,5 Мбайт (13%)
Выравнивание : Соединение по промежуткам
Продолжительность промежутка : 40 мс. (1,00 видеокадр)
Время предзагрузки промежутка : 504 ms
Язык : French


Тех. данные
Качество: ~ ÐVÐRìρ ~
Продолжительность: 01:38:48 часа


Формат: AVI
Видео кодек: XviD
Аудио кодек: MP3
Видео: 640x272 (2,35:1), 25,00 fps, XviD, ~ 858.00 kbps avg, 0.19 bit/pixel
Аудио: 48.00 kHz, MPEG Layer 3, 2 ch, ~ 128.00 kbps avg



cтол заказов | пожелания | стол заказов по рипам


97bfe5545b0aca8f2e58767c628a35c2d9fd88c7Пупупиду / Poupoupidou (Жеральд Юсташ-Матье, комедия, криминал, 2011) [DVDRip, Профессиональный (многоголосый, закадровый)] Пупупиду / Poupoupidou (Жеральд Юсташ-Матье, комедия, криминал, 2011) [DVDRip, Профессиональный (многоголосый, закадровый)] " />

Аплоадер: Админ, дата: 15-12-2011, 11:40, торрент скачан: 359 раз

Понравилась раздача? Посмотрите эти:
  • Слежка / The Letter (Джей Ананья, Триллер, драма, 2012) [DVDRip, Профессион ...
  • Астрал на улице Арлетт / 388 Arletta Avenue (Рэндолл Коул, Триллер, 2011) [ ...
  • Блинки: Плохой робот / BlinkyTM (Рори Робинсон, короткометражка, ужасы, фан ...
  • Вечернее платье / Tenue de soiree (Бертран Блие / Bertrand Blier, Драма, ко ...
  • Кажется, я люблю свою жену / I Think I Love My Wife (Крис Рок, Драма, мелод ...
  • Темный сахар / Brown Sugar (Рик Фамуйива, Драма, мелодрама, комедия, музыка ...
  • Пупупиду / Poupoupidou (Жеральд Юсташ-Матьё, комедия, криминал, детектив, 2 ...
  • Бог любви / God of Love (Люк Мэзени, Короткометражка, фэнтези, комедия, мел ...
  • Кейси Джонс / Casey Jones (Иларион Бэнкс, Короткометражка, фэнтези, боевик, ...
  • Заместитель / Il supplente (Андреа Жублин, Короткометражка, комедия, 2007) ...
  • Дорога на... / Road to (Таисия Игуменцева, Комедия, короткометражный, 2011) ...
  • Покорить высоту / Take It to the Limit (Сэм Кит / Sam Kieth, семейный, 2000 ...
  • Светлячок. Воссоединение Коричневых плащей к 10 годовщине / Firefly 10th An ...
  • А что насчет тебя? / How About You (Энтони Бирн, Драма, комедия, 2007) [DVD ...
  • Детский душ / Baby Shower (Pablo Illanes, Ужасы, 2011) [DVDRip, Любительски ...
  • Крест / Cross (Патрик Дархэм, боевик, 2011) [DVDRip, Профессиональный (мног ...
  • Привет, Джули! / Flipped (Роб Райнер, драма, мелодрама, комедия , 2010) [HD ...
  • Пулбой: Спасайся кто может / Poolboy: Drowning Out the Fury (Гарретт Бравит ...
  • В лесу / The Forest (Шан Серафин, ужасы, триллер , 2011) [SATRip, Профессио ...
  • Пупупиду / Poupoupidou (Жеральд Юсташ-Матьё, комедия, криминал, 2011) [DVDR ...
  • Челюсти 3D / Shark Night 3D (Дэвид Р. Эллис, ужасы, триллер, 2011) [HDRip, ...
  • Ловцы забытых голосов / Hoshi wo Ou Kodomo (2011) [HDRip, любительский (одн ...
  • Пупупиду / Poupoupidou (Жеральд Юсташ-Матьё, комедия, криминал, 2011) [DVDR ...
  • Пожирая живых / Ночь зомби / Zombie Night (Дэвид Дж. Фрэнсис, Ужасы, комеди ...
  • Бюро находок : Потерянный и найденный / Lost and Found (Филип Хант, коротко ...
  • Информация
    Посетители, находящиеся в группе Гости, не могут оставлять комментарии к данной публикации.