вход на сайт

Имя пользователя :
Пароль :

Восстановление пароля Регистрация
Пулбой: Спасайся кто может / Poolboy: Drowning Out the Fury (Гарретт Бравит / Garrett Brawith, комедия, 2011) [DVDRip, Профессиональный (многоголосый) [лицензия]]
Рейтинг:
(голосов: 1)



[img]{THEME}/images/logopost.png[/img]



Пулбой: Спасайся кто может / Poolboy: Drowning Out the Fury

Год выпуска: 2011
Страна: США
Производство: After Dark FilmsA Common Thread, Street Justice Films
Жанр: комедия

Режиссёр: Гарретт Бравит / Garrett Brawith
В ролях: Кевин Сорбо, Росс Паттерсон, Дэнни Трехо, Джейсон Мьюз, Эди Паттерсон, Брайан Коллен, Марк Керри, Роберт ЛаСардо, Аланна Юбак, Чериз Бэнгс

Перевод: Профессиональный (многоголосый) [лицензия]
Субтитры: нет

Описание: Ветеран войны во Вьетнаме Сал Бандо, которого очень скучает по мирной жизни чистильщика бассейнов, возвращается домой. Но он не может смириться с «новой» Калифонией, где только мексиканцы работают в клининговых компаниях. И тогда Бандо решает вернуть себе законное право заниматься любимым делом и отомстить человеку, который убил его жену и сына.
Качество: DVDRip [исходник - DVD9 R5]
Продолжительность: 01:25:58


Формат: AVI
Видео кодек: XviD
Аудио кодек: MPEG Layer 3
Свойства видео: 720x400 (16:9), 25.000 fps, XVID ~1071 kbps avg, 0.149 bit/pixel
Свойства аудио: 48 kHz, МР3, 2 ch, 128.00 kbps Constant

MediaInfo ▼
Общее
Полное имя : Pulboj.Spasajsja.kto.mozhet.2011.P.DVDRip.745MB.avi
Формат : AVI
Формат/Информация : Audio Video Interleave
Размер файла : 743 Мбайт
Продолжительность : 1 ч. 25 м.
Общий поток : 1209 Кбит/сек
Программа кодирования : VirtualDubMod 1.5.10.3 (build 2550/release)
Библиотека кодирования : VirtualDubMod build 2550/release
Видео
Идентификатор : 0
Формат : MPEG-4 Visual
Профиль формата : Advanced [email protected]
Параметр BVOP формата : 1
Параметр QPel формата : Нет
Параметр GMC формата : Без точки перехода
Параметр матрицы формата : Выборочная
Идентификатор кодека : XVID
Идентификатор кодека/Подсказка : XviD
Продолжительность : 1 ч. 25 м.
Битрейт : 1071 Кбит/сек
Ширина : 720 пикселей
Высота : 400 пикселей
Соотношение сторон : 16:9
Частота кадров : 25,000 кадров/сек
Цветовое пространство : YUV
Субдискретизация насыщенности : 4:2:0
Битовая глубина : 8 бит
Тип развёртки : Прогрессивная
Метод сжатия : С потерями
Бит/(Пиксели*Кадры) : 0.149
Размер потока : 659 Мбайт (89%)
Библиотека кодирования : XviD 1.2.1 (UTC 2008-12-04)
Аудио
Идентификатор : 1
Формат : MPEG Audio
Версия формата : Version 1
Профиль формата : Layer 3
Режим : Joint stereo
Расширение режима : MS Stereo
Идентификатор кодека : 55
Идентификатор кодека/Подсказка : MP3
Продолжительность : 1 ч. 25 м.
Вид битрейта : Постоянный
Битрейт : 128 Кбит/сек
Каналы : 2 канала
Частота : 48,0 КГц
Метод сжатия : С потерями
Размер потока : 78,7 Мбайт (11%)
Выравнивание : Соединение по промежуткам
Продолжительность промежутка : 40 мс. (1,00 видеокадр)
Время предзагрузки промежутка : 504 ms



287a3192bea8db81fabb9c5b6ad1f201b2b420c6Пулбой: Спасайся кто может / Poolboy: Drowning Out the Fury (Гарретт Бравит / Garrett Brawith, комедия, 2011) [DVDRip, Профессиональный (многоголосый) [лицензия]] Пулбой: Спасайся кто может / Poolboy: Drowning Out the Fury (Гарретт Бравит / Garrett Brawith, комедия, 2011) [DVDRip, Профессиональный (многоголосый) [лицензия]] " />

Аплоадер: Админ, дата: 29-08-2011, 16:17, торрент скачан: 359 раз

Понравилась раздача? Посмотрите эти:
  • Слежка / The Letter (Джей Ананья, Триллер, драма, 2012) [DVDRip, Профессион ...
  • Это - Англия. Год 1986 / This Is England 86 // Сезон 1, эпизоды с 1 по 4 (и ...
  • Путешествие на дно моря / Voyage to the Bottom of the Sea (Ирвин Аллен / I ...
  • Кажется, я люблю свою жену / I Think I Love My Wife (Крис Рок, Драма, мелод ...
  • Кажется, я люблю свою жену / I Think I Love My Wife (Крис Рок, Драма, мелод ...
  • Темный сахар / Brown Sugar (Рик Фамуйива, Драма, мелодрама, комедия, музыка ...
  • Огненный шторм / Firestorm (Дин Семлер, Боевик, Триллер, 1998) [DVDRip, Про ...
  • Бог любви / God of Love (Люк Мэзени, Короткометражка, фэнтези, комедия, мел ...
  • К-9: Рождественские приключения / K9 Adventures: A Christmas Tale (Бен Гурл ...
  • Кейси Джонс / Casey Jones (Иларион Бэнкс, Короткометражка, фэнтези, боевик, ...
  • Заместитель / Il supplente (Андреа Жублин, Короткометражка, комедия, 2007) ...
  • Покорить высоту / Take It to the Limit (Сэм Кит / Sam Kieth, семейный, 2000 ...
  • Светлячок. Воссоединение Коричневых плащей к 10 годовщине / Firefly 10th An ...
  • А что насчет тебя? / How About You (Энтони Бирн, Драма, комедия, 2007) [DVD ...
  • У дьявола нет лица / Plasterhead (Кевин Хиггинс / Kevin Higgins, ужасы, три ...
  • Детский душ / Baby Shower (Pablo Illanes, Ужасы, 2011) [DVDRip, Любительски ...
  • Крест / Cross (Патрик Дархэм, боевик, 2011) [DVDRip, Профессиональный (мног ...
  • Пулбой: Спасайся кто может / Poolboy: Drowning Out the Fury (Garrett Brawit ...
  • Пупупиду / Poupoupidou (Жеральд Юсташ-Матье, комедия, криминал, 2011) [DVDR ...
  • Пожирая живых / Ночь зомби / Zombie Night (Дэвид Дж. Фрэнсис, Ужасы, комеди ...
  • Информация
    Посетители, находящиеся в группе Гости, не могут оставлять комментарии к данной публикации.