вход на сайт

Имя пользователя :
Пароль :

Восстановление пароля Регистрация
Майский дождь (Евгений Лаврентьев, мелодрама, комедия, 2012) [DVDRip, Не требуются]
Рейтинг:
(голосов: 1)



[img]{THEME}/images/logopost.png[/img]



• Майский дождь •
♥ Год выпуска: 2012
♥ Страна: Россия
♥ Производство: Про100 Фильм
♥ Жанр: мелодрама, комедия

♥ Режиссёр: Евгений Лаврентьев
♥ В ролях: Артем Ткаченко, Данила Дунаев, Ирина Таранник, Равшана Куркова

♥ Перевод: Не требуется
♥ Субтитры: Нет

♥ Описание: В жизни Ольги происходит то самое событие, которого все девушки ждут годами: Марк делает ей предложение! Всё происходит, как положено: розы, шампанское, назначение точной даты свадьбы, планы путешествиия, мечты о будущих детях… Но вдруг романтику момента нарушают удары в стену: недавно переехавший сосед устроил очередную вечеринку. «Сколько это может продолжаться?» — негодуют Ольга и Марк. И тут Ольге в голову приходит идея...♥ Качество: DVDRip
♥ Продолжительность: 01:26:22

♥ Формат: AVI
♥ Видео кодек: XviD
♥ Аудио кодек: MP3
♥ Видео: 640x352 (16:9), 25.000 fps, XviD992 kbps avg, 0.176 bit/pixel
♥ Аудио: 48 kHz, MP3,2 ch, ~128 kbps avg

♥ Релиз на DVD: 18 декабря 2012, «Lizard Cinema Trade»

"Mediainfo" ▼
General
Format : AVI
Format/Info : Audio Video Interleave
File size : 698 MiB
Duration : 1h 26mn
Overall bit rate : 1 129 Kbps
Writing application : VirtualDubModRus 1.5.10.2 (build 2542/release)
Writing library : VirtualDubMod build 2542/release
Video #0
ID : 0
Format : MPEG-4 Visual
Format profile : Advanced [email protected]
Format settings, BVOP : 2
Format settings, QPel : No
Format settings, GMC : No warppoints
Format settings, Matrix : Default (H.263)
Codec ID : XVID
Codec ID/Hint : XviD
Duration : 1h 26mn
Bit rate : 992 Kbps
Width : 640 pixels
Height : 352 pixels
Display aspect ratio : 16:9
Frame rate : 25.000 fps
Color space : YUV
Chroma subsampling : 4:2:0
Bit depth : 8 bits
Scan type : Progressive
Compression mode : Lossy
Bits/(Pixel*Frame) : 0.176
Stream size : 613 MiB (88%)
Writing library : XviD 1.2.1 (UTC 2008-12-04)
Audio #1
ID : 1
Format : MPEG Audio
Format version : Version 1
Format profile : Layer 3
Mode : Joint stereo
Codec ID : 55
Codec ID/Hint : MP3
Duration : 1h 26mn
Bit rate mode : Constant
Bit rate : 128 Kbps
Channel(s) : 2 channels
Sampling rate : 48.0 KHz
Compression mode : Lossy
Stream size : 79.1 MiB (11%)
Alignment : Aligned on interleaves
Interleave, duration : 40 ms (1.00 video frame)
b258f8ee39df59071672b15cf3ed559882541234Майский дождь (Евгений Лаврентьев, мелодрама, комедия, 2012) [DVDRip, Не требуются] Майский дождь (Евгений Лаврентьев, мелодрама, комедия, 2012) [DVDRip, Не требуются] " />

Аплоадер: Админ, дата: 26-12-2012, 10:59, торрент скачан: 359 раз

Понравилась раздача? Посмотрите эти:
  • Непристойная комедия / InAPPropriate Comedy (Винс Оффер, комедия, 2013) [DV ...
  • Решала (Роман Асхаев, Драма,Криминал, 2012) [WEB-DLRip, Не требуется]
  • Чемпионат Италии 2012-13 / 36-й тур / Рома — Кьево / НТВ+ [07.05.2013, SD, ...
  • В Первый Раз / The First Time (Джон Кэздан, мелодрама, комедия, 2012) [DVDR ...
  • Любовь на кончиках пальцев / Populaire (Режис Ройнсар, Мелодрама, комедия, ...
  • Мой парень – псих / Silver Linings Playbook (Дэвид О. Расселл, Драма, мелод ...
  • Молодежный чемпионат мира 2012 (U-20). Четвертьфинал: Россия - Чехия [02.01 ...
  • Чемпионат Европы 2012 / Группа C / 1-й тур / Ирландия — Хорватия / ТРК Футб ...
  • Чемпионат Европы 2012 / Группа D / 1-й тур / Украина - Швеция / Спорт 1 [11 ...
  • Олимпиада 2012 / Мужчины / Группа D / 1-й тур / Испания — Япония / НТВ+ [Фу ...
  • Олимпиада 2012 / Футбол / Мужчины / Группа A / 3-й тур / Великобритания - У ...
  • С новым годом, мамы! (Сарик Андреасян, Артем Аксененко, Дмитрий Грачев, ком ...
  • Майский дождь (Евгений Лаврентьев, мелодрама, комедия, 2012) [DVDRip, Не тр ...
  • Неделя в NBA с В.Гомельским / НТВ+ [28.06.2011, SD, XviD, RU, SAT]
  • Вскрытие инопланетянина/Alien Autopsy (Джонни Кэмпбелл, Комедия, фантастика ...
  • Чемпионат Англии 2011-2012 / Championship / 45-й Тур / Обзор Матчей / НТВ+ ...
  • Романтики / The Romantics (Галт Нидерхоффер, Драма, мелодрама, комедия, 201 ...
  • Желтый платочек счастья / The Yellow Handkerchief (Юдайан Прасад, мелодрама ...
  • Чемпионат Европы 2012 / Группа B / 1-й тур / Германия - Португалия / Спорт ...
  • Олимпийский квалификационный турнир 2012 / Венесуэла / Мужчины / Группа C / ...
  • Товарищеский матч 2012 / АмаЗулу (ЮАР) - Манчестер Юнайтед (Англия) / MU TV ...
  • Мгновение любви / Here (Браден Кинг, Драма, мелодрама, приключения, 2011) [ ...
  • Олимпиада 2012 / Женщины, Мужчины / Плавание / Квалификация / НТВ+ [30.07.2 ...
  • Робинзон Крузо / Robinson Crusoe (Род Харди, Джордж Миллер, драма, приключе ...
  • Табу / Tabu (Мигель Гомеш, Драма, мелодрама, 2012) [DVDRip, Профессиональны ...
  • Информация
    Посетители, находящиеся в группе Гости, не могут оставлять комментарии к данной публикации.