вход на сайт

Имя пользователя :
Пароль :

Восстановление пароля Регистрация
Семья (Дмитрий Сорокин, Мелодрама, Комедия, 2012) [SATRip, Не требуются]
Рейтинг:
(голосов: 1)



[img]{THEME}/images/logopost.png[/img]



Семья

Год выпуска: 2012
Страна: Россия
Производство: Стар-медиа
Жанр: Мелодрама, Комедия

Режиссёр: Дмитрий Сорокин
В ролях: Алексей Секирин, Наталья Рычкова, Михаил Богдасаров, Татьяна Рудина, Егор Лучишкин, Саят Абаджян, Андрей Капустин, Маша Малиновская, Георгий Назаренко, Константин Новиков, Кристина Шелобкова, Ярослав Рось

Перевод: Не требуются
Субтитры: Oтсутствуют

Описание: Это история Алексея Новикова, владельца небольшой фирмы по производству компьютерных программ. Для расширения бизнеса Алексею необходимо подписать соглашение с американским партнером, Дэвидом Коти. Но оказалось, что для Коти важно иметь дело с человеком семейным. Чтобы заключить сделку, Алексей врет, что у него есть жена и дети. Коти приедет со дня на день, Алексею удается найти актрису, которая согласна изображать его супругу. Но в последний момент женщина отказывается. Взять на себя эту роль вынуждена Алена, одна из сотрудниц Алексея. Герою предстоит пройти сложный путь, выстроить взаимоотношения с двумя детьми Алены, найти общий язык с ее мамой, и, наконец, понять, что даже самый успешный бизнес не сможет заменить семейного тепла.



Качество: SATRip
Продолжительность: 01:29:35 час.
"MI" ▼Общее
Полное имя : D:Семья.2012.SATRip.avi
Формат : AVI
Формат/Информация : Audio Video Interleave
Размер файла : 1,03 Гбайт
Продолжительность : 1 ч. 29 м.
Общий поток : 1639 Кбит/сек
Библиотека кодирования : VirtualDub build 32706/release

Видео
Идентификатор : 0
Формат : MPEG-4 Visual
Профиль формата : Advanced [email protected]
Параметр BVOP формата : 2
Параметр QPel формата : Нет
Параметр GMC формата : Без точки перехода
Параметр матрицы формата : Default (MPEG)
Идентификатор кодека : XVID
Идентификатор кодека/Подсказка : XviD
Продолжительность : 1 ч. 29 м.
Битрейт : 1501 Кбит/сек
Ширина : 720 пикс.
Высота : 400 пикс.
Соотношение сторон : 16:9
Частота кадров : 25,000 кадр/сек
Цветовое пространство : YUV
Подвыборка цветности : 4:2:0
Битовая глубина : 8 бит
Тип развёртки : Прогрессивная
Метод сжатия : С потерями
Бит/(Пиксели*Кадры) : 0.208
Размер потока : 962 Мбайт (92%)
Библиотека кодирования : XviD 1.2.1 (UTC 2008-12-04)

Аудио
Идентификатор : 1
Формат : MPEG Audio
Версия формата : Version 1
Профиль формата : Layer 3
Режим : Joint stereo
Расширение режима : MS Stereo
Идентификатор кодека : 55
Идентификатор кодека/Подсказка : MP3
Продолжительность : 1 ч. 29 м.
Вид битрейта : Постоянный
Битрейт : 128 Кбит/сек
Каналы : 2 канала
Частота : 48,0 КГц
Метод сжатия : С потерями
Размер потока : 82,0 Мбайт (8%)
Выравнивание : Разделение по промежуткам
Продолжительность промежутка : 40 мс. (1,00 видеокадр)
Время предзагрузки промежутка : 500 ms
Формат: AVI
Видео кодек:XviD
Аудио кодек: MP3
Видео: 720x400 (16:9), 25 fps, ~1501 kbps avg, 0.208 bit/pixel
Аудио: 48 kHz, MPEG Layer 3, 2 ch, ~128.00 kbps avg

Стол заказов POWER | Отзывы | Вступление в POWER|Раздача до 5 скачавших


c68294fee21a956da2d0704b7ed915b3646985bbСемья (Дмитрий Сорокин, Мелодрама, Комедия, 2012) [SATRip, Не требуются] Семья (Дмитрий Сорокин, Мелодрама, Комедия, 2012) [SATRip, Не требуются] " />

Аплоадер: Админ, дата: 21-12-2012, 00:06, торрент скачан: 359 раз

Понравилась раздача? Посмотрите эти:
  • Оборотень в погонах (Александр Будённый, детектив, криминальный фильм, 2012 ...
  • Очная ставка. Не успели пожить! (Документальный, 21.04.2012) [SatRip, Не тр ...
  • Темный сахар / Brown Sugar (Рик Фамуйива, Драма, мелодрама, комедия, музыка ...
  • Вечерний Ургант // Сезон 2. Выпуск 56 (ТВ-шоу, 11.12.2012) [SATRip, Не треб ...
  • Любовь для бедных ( Вадим Арапов, Мелодрама, 2012) [SATRip, Не требуются] ...
  • Бог любви / God of Love (Люк Мэзени, Короткометражка, фэнтези, комедия, мел ...
  • Любовь по расписанию / Поезд (Сергей Мезенцев, мелодрама, 2012) [HDTVRip, Н ...
  • Вечерний Ургант // Сезон 2. Выпуск 62 (ТВ-шоу, 19.12.2012) [SATRip, Не треб ...
  • Вечерний Ургант // Сезон 2. Выпуск 63 (ТВ-шоу, 20.12.2012) [SATRip, Не треб ...
  • Семья (Дмитрий Сорокин, комедия, мелодрама, 2012) [SATRip, Не требуется]
  • Конец света (Богдан Дробязко, Детектив, 2012) [SATRip, Не требуются]
  • Заместитель / Il supplente (Андреа Жублин, Короткометражка, комедия, 2007) ...
  • Вечерний Ургант // Сезон 2. Выпуск 64 (ТВ-шоу, 21.12.2012) [SATRip, Не треб ...
  • Вечерний Ургант // Сезон 2. Выпуск 66 (ТВ-шоу, 25.12.2012) [SATRip, Не треб ...
  • Вечерний Ургант // Сезон 2. Выпуск 68 (ТВ-шоу, 27.12.2012) [SATRip, Не треб ...
  • Дорога на... / Road to (Таисия Игуменцева, Комедия, короткометражный, 2011) ...
  • Отдам котят в хорошие руки (Александр Баршак, комедия, 2012)[SATRip, не тре ...
  • Детский душ / Baby Shower (Pablo Illanes, Ужасы, 2011) [DVDRip, Любительски ...
  • Привет, Джули! / Flipped (Роб Райнер, драма, мелодрама, комедия , 2010) [HD ...
  • Молодожены (Ольга Доброва-Куликова,Мелодрама,2012) [SATRip, не требуются]
  • Живая тема. Мой муж - марсианин (Документальный, 24.04.2012) [SatRip, Не тр ...
  • Силиконовая Долина (Документальный, 2012) [SatRip, Профессиональный (одного ...
  • Развод по-русски. Выпуск №78. Трагедии звездных семей (Документальный,телеп ...
  • Обратный билет (Александр Кананович, Мелодрама, 2012) [SATRip, Не требуется ...
  • Человек из банки (Иван Кульнев, Комедия, 2012) [DVDRip, Не требуется]
  • Информация
    Посетители, находящиеся в группе Гости, не могут оставлять комментарии к данной публикации.