вход на сайт

Имя пользователя :
Пароль :

Восстановление пароля Регистрация
Любовь по расписанию / Поезд (Сергей Мезенцев, мелодрама, 2012) [HDTVRip, Не требуется]
Рейтинг:
(голосов: 1)



[img]{THEME}/images/logopost.png[/img]



Любовь по расписанию / Поезд

Год выпуска: 2012
Страна: Россия
Производство: Беркана, Кинослово Television
Жанр: Мелодрама

Режиссёр: Сергей Мезенцев
В ролях: Дарья Волга, Александр Арсентьев, Илья Соколовский, Анастасия Панина, Алиса Майорова, Сергей Стёпин, Андрей Карасевич, Юлия Голубева (II)
Перевод: Не требуются

Описание: Главная героиня фильма всегда считала себя счастливой в браке. Но однажды она узнает, что у ее мужа в другом городе есть семья.



Sample

Качество: HDTVRip, исходник - HDTV 1080i
Продолжительность: 01:30:23 час.
"MI" ▼Общее
Полное имя : D:Поезд_745.avi
Формат : AVI
Формат/Информация : Audio Video Interleave
Размер файла : 744 Мбайт
Продолжительность : 1 ч. 30 м.
Общий поток : 1152 Кбит/сек
Программа кодирования : VirtualDubMod 1.5.10.3 | www.virtualdub-fr.org || (build 2550/release)
Библиотека кодирования : VirtualDubMod build 2550/release
Видео
Идентификатор : 0
Формат : MPEG-4 Visual
Профиль формата : Advanced [email protected]
Параметр BVOP формата : 1
Параметр QPel формата : Нет
Параметр GMC формата : Без точки перехода
Параметр матрицы формата : Выборочная
Идентификатор кодека : XVID
Идентификатор кодека/Подсказка : XviD
Продолжительность : 1 ч. 30 м.
Битрейт : 1014 Кбит/сек
Ширина : 656 пикселей
Высота : 368 пикселей
Соотношение сторон : 16:9
Частота кадров : 25,000 кадров/сек
Цветовое пространство : YUV
Субдискретизация насыщенности : 4:2:0
Битовая глубина : 8 бит
Тип развёртки : Прогрессивная
Метод сжатия : С потерями
Бит/(Пиксели*Кадры) : 0.168
Размер потока : 655 Мбайт (88%)
Библиотека кодирования : XviD 65
Аудио
Идентификатор : 1
Формат : MPEG Audio
Версия формата : Version 1
Профиль формата : Layer 3
Идентификатор кодека : 55
Идентификатор кодека/Подсказка : MP3
Продолжительность : 1 ч. 30 м.
Вид битрейта : Постоянный
Битрейт : 128 Кбит/сек
Каналы : 2 канала
Частота : 48,0 КГц
Метод сжатия : С потерями
Размер потока : 82,8 Мбайт (11%)
Выравнивание : Соединение по промежуткам
Продолжительность промежутка : 40 мс. (1,00 видеокадр)
Время предзагрузки промежутка : 504 мс.
Библиотека кодирования : LAME3.99
Настройки программы : -m s -V 4 -q 0 -lowpass 17 -b 128
Формат: AVI
Видео кодек:XviD
Аудио кодек: MP3
Видео: 656x368 (1.78:1), 25 fps, XviD build 65 ~1013 kbps avg, 0.17 bit/pixel
Аудио: 48 kHz, MPEG Layer 3, 2 ch, ~128.00 kbps avg

Стол заказов POWER | Отзывы | Вступление в POWER|Раздача до 5 скачавших


43f0bdfaedeb695c8cd942b0ca1939717f542703Любовь по расписанию / Поезд (Сергей Мезенцев, мелодрама, 2012) [HDTVRip, Не требуется] Любовь по расписанию / Поезд (Сергей Мезенцев, мелодрама, 2012) [HDTVRip, Не требуется] " />

Аплоадер: Админ, дата: 18-12-2012, 18:54, торрент скачан: 359 раз

Понравилась раздача? Посмотрите эти:
  • Миллионы Брюстера / Brewsters Millions (Уолтер Хилл, Комедия, 1985) [HDTVRi ...
  • Околофутбола (Антон Борматов, драма, криминал, 2013) [DVDRip, Не требуется] ...
  • К черному морю (Андрей Тутышкин, мелодрама, комедия, 1957) [DVDRip, не треб ...
  • Оборотень в погонах (Александр Будённый, детектив, криминальный фильм, 2012 ...
  • Злые птицы: Хэллоуин / Angry Birds: HamOWeen (Джей Ройвайнен, Мультфильм, к ...
  • Кажется, я люблю свою жену / I Think I Love My Wife (Крис Рок, Драма, мелод ...
  • Темный сахар / Brown Sugar (Рик Фамуйива, Драма, мелодрама, комедия, музыка ...
  • Я тоже хочу (Алексей Балабанов, драма, криминал, 2012) [DVDRip, Не требуетс ...
  • В Россию за любовью! (Арман Геворгян, Комедия, 2012) [DVDRip, Не требуется] ...
  • Вечерний Ургант // Сезон 2. Выпуск 56 (ТВ-шоу, 11.12.2012) [SATRip, Не треб ...
  • Мама выходит замуж (Вадим Соколовский, Мелодрама, 2012) [HDTVRip, Не требуе ...
  • 1812: Уланская баллада (Олег Фесенко, приключения, 2012) [DVDRip, Не требуе ...
  • Бог любви / God of Love (Люк Мэзени, Короткометражка, фэнтези, комедия, мел ...
  • Вечерний Ургант // Сезон 2. Выпуск 62 (ТВ-шоу, 19.12.2012) [SATRip, Не треб ...
  • Вечерний Ургант // Сезон 2. Выпуск 63 (ТВ-шоу, 20.12.2012) [SATRip, Не треб ...
  • Заместитель / Il supplente (Андреа Жублин, Короткометражка, комедия, 2007) ...
  • Вечерний Ургант // Сезон 2. Выпуск 66 (ТВ-шоу, 25.12.2012) [SATRip, Не треб ...
  • Вечерний Ургант // Сезон 2. Выпуск 68 (ТВ-шоу, 27.12.2012) [SATRip, Не треб ...
  • Дорога на... / Road to (Таисия Игуменцева, Комедия, короткометражный, 2011) ...
  • Покорить высоту / Take It to the Limit (Сэм Кит / Sam Kieth, семейный, 2000 ...
  • Светлячок. Воссоединение Коричневых плащей к 10 годовщине / Firefly 10th An ...
  • Детский душ / Baby Shower (Pablo Illanes, Ужасы, 2011) [DVDRip, Любительски ...
  • Любовь по расписанию / Поезд (Сергей Мезенцев, мелодрама, 2012) [SATRip, не ...
  • Обратный билет (Александр Кананович, Мелодрама, 2012) [SATRip, Не требуется ...
  • Человек из банки (Иван Кульнев, Комедия, 2012) [DVDRip, Не требуется]
  • Информация
    Посетители, находящиеся в группе Гости, не могут оставлять комментарии к данной публикации.