вход на сайт

Имя пользователя :
Пароль :

Восстановление пароля Регистрация
Стильная штучка / Sweet Home Alabama (Энди Теннант, Мелодрама, комедия, 2002) [BDRip-AVC, Дубляж]
Рейтинг:
(голосов: 1)



[img]{THEME}/images/logopost.png[/img]



Стильная штучка / Sweet Home Alabama
«To friere er en for mange... spesielt når du allerede er gift med den ene...»


Год выпуска: 2002
Страна: США
Производство: Touchstone Pictures
Жанр: Мелодрама, комедия

Режиссёр: Энди Теннант
В ролях: Риз Уизерспун, Джош Лукас, Патрик Демпси, Кэндис Берген, Мэри Кэй Плэйс, Фред Уорд, Джин Смарт, Итэн Эмбри, Мелани Лински, Кортни Гейнс

Перевод: Дубляж
Субтитры: Отсутствуют

Описание: В этой романтичной комедии нью-йоркский дизайнер мод Мелани Кармайкл внезапно оказывается очарована самым знатным холостяком города. Но прошлое Мелани хранит много тайн, включая Джейка, мужа, за которого она вышла замуж в средней школе и который отказывается разводиться с ней.

Решив закончить их спорные отношения раз и навсегда, Мелани тайком возвращается домой в штат Алабама, но там она обнаруживает, что можно забрать девушку с Юга, но никогда нельзя забрать Юг из девушки…



Автор рипа:

Качество: BDRip-AVC
Продолжительность: 01:48:47 час.

Формат: MKV
Видео кодек: x264
Аудио кодек: AC3
Видео: 1024x436 (2,35:1), 23.976 fps, x264 ~1522 kbps, 0.142 bit/pixel
Аудио: 48 kHz, AC3 Dolby Digital, 3/2 (L,C,R,l,r) + LFE ch, ~384.00 kbps avg

Дата премьеры (мир): 20 сентября 2002
Дата премьеры (РФ): 11 декабря 2002, «Каскад»

"MediaInfo" ▼Общее
Уникальный идентификатор : 206511079432443340148564376359658877393 (0x9B5C9650F2AB6FD59B32A514626871D1)
Полное имя : D:Sweet Home Alabama.2002.BDRip-AVC.mkv
Формат : Matroska
Версия формата : Version 4 / Version 2
Размер файла : 1,45 Гбайт
Продолжительность : 1 ч. 49 м.
Общий поток : 1902 Кбит/сек
Название фильма : Стильная штучка / Sweet Home Alabama (2002) BDRip-AVC rip by Rulya74
Дата кодирования : UTC 2010-02-22 21:41:31
Программа кодирования : mkvmerge v5.9.0 (On The Loose) built on Dec 9 2012 15:37:01
Библиотека кодирования : libebml v1.3.0 + libmatroska v1.4.0

Видео
Идентификатор : 1
Формат : AVC
Формат/Информация : Advanced Video Codec
Профиль формата : [email protected]
Параметр CABAC формата : Да
Параметр ReFrames формата : 9 кадров
Идентификатор кодека : V_MPEG4/ISO/AVC
Продолжительность : 1 ч. 49 м.
Битрейт : 1522 Кбит/сек
Ширина : 1024 пикселя
Высота : 436 пикселей
Соотношение сторон : 2,35:1
Частота кадров : 23,976 кадра/сек
Цветовое пространство : YUV
Субдискретизация насыщенности : 4:2:0
Битовая глубина : 8 бит
Тип развёртки : Прогрессивная
Бит/(Пиксели*Кадры) : 0.142
Размер потока : 1,13 Гбайт (78%)
Библиотека кодирования : x264 core 129 r2230 1cffe9f
Настройки программы : cabac=1 / ref=9 / deblock=1:-3:-3 / analyse=0x3:0x133 / me=umh / subme=10 / psy=1 / psy_rd=1.09:0.07 / mixed_ref=1 / me_range=32 / chroma_me=1 / trellis=2 / 8x8dct=1 / cqm=0 / deadzone=21,11 / fast_pskip=0 / chroma_qp_offset=-3 / threads=8 / lookahead_threads=1 / sliced_threads=0 / nr=0 / decimate=1 / interlaced=0 / bluray_compat=0 / constrained_intra=0 / bframes=7 / b_pyramid=2 / b_adapt=2 / b_bias=0 / direct=3 / weightb=1 / open_gop=0 / weightp=2 / keyint=240 / keyint_min=23 / scenecut=40 / intra_refresh=0 / rc_lookahead=40 / rc=2pass / mbtree=1 / bitrate=1522 / ratetol=1.0 / qcomp=0.60 / qpmin=10 / qpmax=51 / qpstep=4 / cplxblur=20.0 / qblur=0.5 / ip_ratio=1.40 / aq=2:1.00
Default : Да
Forced : Нет

Аудио
Идентификатор : 2
Формат : AC-3
Формат/Информация : Audio Coding 3
Расширение режима : CM (complete main)
Идентификатор кодека : A_AC3
Продолжительность : 1 ч. 49 м.
Вид битрейта : Постоянный
Битрейт : 384 Кбит/сек
Каналы : 6 каналов
Расположение каналов : Front: L C R, Side: L R, LFE
Частота : 48,0 КГц
Битовая глубина : 16 бит
Метод сжатия : С потерями
Размер потока : 300 Мбайт (20%)
Заголовок : Дублированный
Язык : Russian
Default : Да
Forced : Нет





d06f20aebd721d9434aa56d567aaa66b1eb0a0cdСтильная штучка / Sweet Home Alabama (Энди Теннант, Мелодрама, комедия, 2002) [BDRip-AVC, Дубляж] Стильная штучка / Sweet Home Alabama (Энди Теннант, Мелодрама, комедия, 2002) [BDRip-AVC, Дубляж] " />

Аплоадер: Админ, дата: 21-12-2012, 21:06, торрент скачан: 359 раз

Понравилась раздача? Посмотрите эти:
  • Никто не выжил / No One Lives (Рюхэй Китамура, Триллер, ужасы, 2012) [BDRip ...
  • Поймай толстуху, если сможешь / Identity Thief [Theatrical Cut] (Сет Гордон ...
  • Больше, чем любовь / A Lot Like Love (Найджел Коул, Драма, мелодрама, комед ...
  • Даю год / I Give It a Year (Дэн Мазер, мелодрама, комедия, 2012) [BDRip-AVC ...
  • 21 и больше / 21 & Over (Джон Лукас, Скотт Мур, Комедия, 2013) [BDRip-AVC, ...
  • Ангелы Чарли / Charlies Angels (МакДжи, Боевик, триллер, комедия, криминал, ...
  • Подземелье драконов / Dungeons & Dragons (Кортни Соломон, Фэнтези, боевик, ...
  • Толстяк на ринге / Here Comes the Boom (Фрэнк Корачи, Боевик, комедия, 2012 ...
  • Суррогат / The Sessions (Бен Луин, Драма, 2012) [BDRip-AVC, Профессиональны ...
  • Начинающие / Beginners (Майк Миллс / Mike Mills, драма, мелодрама, комедия, ...
  • Переростки / The Inbetweeners (Бен Палмер, Комедия, 2011) [BDRip-AVC, Профе ...
  • Медальон / Stolen (Саймон Уэст, Боевик, триллер, 2012) [BDRip-AVC, Дубляж]
  • Ищу друга на конец света / Seeking a Friend for the End of the World (Лорен ...
  • Третий лишний / Ted (Сет МакФарлейн, Фэнтези, комедия, 2012) [BDRip-AVC, Ду ...
  • Золото дураков / Fools Gold (Энди Теннант, Мелодрама, комедия, приключения, ...
  • Облачный атлас / Cloud Atlas (Лана Вачовски, Том Тыквер, Энди Вачовски, фан ...
  • Помогите Стать Отцом / Not Suitable For Children (Питер Темплмен, Мелодрама ...
  • Скрат: Потерянный орех / Scrat: Gone Nutty (Карлос Салдана, короткометражка ...
  • Лето. Одноклассники. Любовь / LOL (Лиза Азуэлос, Драма, мелодрама, комедия, ...
  • Лето. Одноклассники. Любовь / LOL (Лиза Азуэлос, Драма, мелодрама, комедия, ...
  • Лоракс: Серенада / The Lorax: Serenade (Кайл Балда, мультфильм, комедия, му ...
  • Стильная штучка / Sweet Home Alabama (Энди Теннант, мелодрама, комедия, 200 ...
  • Стильная штучка / Sweet Home Alabama (Энди Теннант, комедия, мелодрама, 200 ...
  • Стильная штучка / Sweet Home Alabama (Энди Теннант, мелодрама, комедия, 200 ...
  • Стильная штучка / Sweet Home Alabama (Энди Теннант, Мелодрама, комедия, 200 ...
  • Информация
    Посетители, находящиеся в группе Гости, не могут оставлять комментарии к данной публикации.