вход на сайт

Имя пользователя :
Пароль :

Восстановление пароля Регистрация
Шаг вперед 4 / Step Up Revolution (Скотт Спир, Драма, мелодрама, музыка, 2012) [BDRip-AVC, Дубляж, Оригинал, Sub]
Рейтинг:
(голосов: 1)



[img]{THEME}/images/logopost.png[/img]



Шаг вперед 4 / Step Up Revolution
«Горячее не бывает»


Год выпуска: 2012
Страна: США
Производство: Offspring Entertainment, Summit Entertainment
Жанр: драма, мелодрама, музыка

Режиссёр: Скотт Спир
В ролях: Райан Гузман, Кэтрин МакКормик, Миша Гэбриел Хэмилтон, Клеопатра Коулмэн, Стивен Стэннерт, Томми Дьюи, Питер Галлахер, Майкл «Ксено» Лэнджбек, Клаудио Пинто, Николь Дабо

Перевод: Дубляж, Оригинал
Субтитры: Английские, русские

Описание: Эмили, дочь влиятельного бизнесмена, приезжает в Майами с намерением стать профессиональной танцовщицей, но влюбляется в Шона - юношу, чья танцевальная труппа устраивает музыкальные флэшмобы. Команда, называющаяся MOB, участвует в конкурсе с внушительным денежным призом, а тем временем отец Эмили намеревается перестроить родной район ребят и переселить тысячи людей. Эмили присоединяется к танцорам и организует протестные мобы, рискуя не осуществить мечту, но сражаясь за нечто более важное.



Автор рипа:

Качество: BDRip-AVC | Сэмпл | исх. Step Up Revolution 2012 1080p BluRay Remux AVC DTS-HD BluEvo
Продолжительность: 01:38:39 час.

Формат: MKV
Видео кодек: x264
Аудио кодек: AC3
Видео: 1056x440 (2.40:1), 23,976 fps, x264 ~2 268 kbps avg, 0.204 bit/pixel
Аудио#1: 48 kHz, AC3 Dolby Digital, 3/2 (L,C,R,l,r) + LFE ch, ~448 kbps | Дубляж
Аудио#2: 48 kHz, AC3 Dolby Digital, 3/2 (L,C,R,l,r) + LFE ch, ~448 kbps | Оригинал

Дата премьеры (мир): 26 июля 2012
Дата премьеры (РФ): 26 июля 2012, «West»

MediaInfo ▼General
Unique ID : 170391684920365522348495035590611661112 (0x80303EACEF4270FD8CAFCE67FCC57138)
Complete name : Shag.Vpered.Trilogy.R.G.AVI.AVCShag.Vperjod.4.2012.D.BDRip.x264.potroks.mkv
Format : Matroska
Format version : Version 2
File size : 2.18 GiB
Duration : 1h 38mn
Overall bit rate : 3 165 Kbps
Movie name : -=POTROKS=-
Encoded date : UTC 2012-12-03 15:46:51
Writing application : mkvmerge v5.7.0 (The Whirlwind) built on Jul 8 2012 20:08:51
Writing library : libebml v1.2.3 + libmatroska v1.3.0

Video
ID : 1
Format : AVC
Format/Info : Advanced Video Codec
Format profile : [email protected]
Format settings, CABAC : Yes
Format settings, ReFrames : 9 frames
Codec ID : V_MPEG4/ISO/AVC
Duration : 1h 38mn
Bit rate : 2 268 Kbps
Width : 1 056 pixels
Height : 440 pixels
Display aspect ratio : 2.40:1
Frame rate mode : Constant
Frame rate : 23.976 fps
Color space : YUV
Chroma subsampling : 4:2:0
Bit depth : 8 bits
Scan type : Progressive
Bits/(Pixel*Frame) : 0.204
Stream size : 1.52 GiB (70%)
Title : Шаг вперед 4
Writing library : x264 core 128 r2216M 198a7ea
Encoding settings : cabac=1 / ref=10 / deblock=1:-2:-1 / analyse=0x3:0x133 / me=umh / subme=11 / psy=1 / psy_rd=1.05:0.00 / mixed_ref=1 / me_range=32 / chroma_me=1 / trellis=2 / 8x8dct=1 / cqm=0 / deadzone=21,11 / fast_pskip=0 / chroma_qp_offset=-2 / threads=4 / lookahead_threads=1 / sliced_threads=0 / nr=0 / decimate=1 / interlaced=0 / bluray_compat=0 / constrained_intra=0 / bframes=11 / b_pyramid=1 / b_adapt=2 / b_bias=0 / direct=3 / weightb=1 / open_gop=0 / weightp=2 / keyint=240 / keyint_min=23 / scenecut=40 / intra_refresh=0 / rc_lookahead=240 / rc=2pass / mbtree=1 / bitrate=2268 / ratetol=1.0 / qcomp=0.70 / qpmin=0 / qpmax=65 / qpstep=3 / cplxblur=20.0 / qblur=0.5 / vbv_maxrate=20000 / vbv_bufsize=25000 / nal_hrd=none / ip_ratio=1.35 / aq=1:0.80
Language : English
Default : Yes
Forced : No

Audio #1
ID : 2
Format : AC-3
Format/Info : Audio Coding 3
Mode extension : CM (complete main)
Format settings, Endianness : Big
Codec ID : A_AC3
Duration : 1h 38mn
Bit rate mode : Constant
Bit rate : 448 Kbps
Channel(s) : 6 channels
Channel positions : Front: L C R, Side: L R, LFE
Sampling rate : 48.0 KHz
Bit depth : 16 bits
Compression mode : Lossy
Delay relative to video : 1s 126ms
Stream size : 316 MiB (14%)
Title : Dub | DD 5.1 @ 448 kbps
Language : Russian
Default : Yes
Forced : No

Audio #2
ID : 3
Format : AC-3
Format/Info : Audio Coding 3
Mode extension : CM (complete main)
Fo
a36d7769c5ae725851380c8ee4c8a952e81af48aШаг вперед 4 / Step Up Revolution (Скотт Спир, Драма, мелодрама, музыка, 2012) [BDRip-AVC, Дубляж, Оригинал, Sub] Шаг вперед 4 / Step Up Revolution (Скотт Спир, Драма, мелодрама, музыка, 2012) [BDRip-AVC, Дубляж, Оригинал, Sub] " />

Аплоадер: Админ, дата: 3-12-2012, 22:58, торрент скачан: 359 раз

Понравилась раздача? Посмотрите эти:
  • Разговор (Сергей Комаров, Драма, 2012) [BDRip-AVC, Hе требуется]
  • Синистер / Sinister (Скотт Дерриксон, ужасы, детектив, 2012) [BDRip-AVC, Ду ...
  • 007: Координаты «Скайфолл» / Skyfall (Сэм Мендес, Боевик, триллер, криминал ...
  • Замуж на 2 дня / Un plan parfait (Паскаль Шомель, Мелодрама, комедия, прикл ...
  • Хорошо быть тихоней / The Perks of Being a Wallflower (Стивен Чбоски, Драма ...
  • [EN] Шаг вперед 4 / Step Up Revolution (Скотт Спир, драма, мелодрама, музык ...
  • Патруль / End of Watch (Дэвид Эйр, Триллер, драма, криминал, 2012) [BDRip-A ...
  • Шаг вперед 4 / Step Up Revolution (Скотт Спир, Драма, мелодрама, музыка, 20 ...
  • Шаг вперед 4 / Step Up Revolution (Скотт Спир, Драма, мелодрама, музыка, 20 ...
  • Универсальный солдат 4 / Universal Soldier: Day of Reckoning (Джон Хайамс, ...
  • Коллекционер 2 / The Collection (Маркус Данстэн, ужасы, боевик, триллер , 2 ...
  • [3D] Шаг вперед 4 / Step Up Revolution (Скотт Спир, драма, мелодрама, музык ...
  • [3D] Шаг вперед 4 / Step Up Revolution (Скотт Спир / Scott Speer, Мелодрама ...
  • Золушка: Полный вперед! / Cendrillon au Far West (Паскаль Эрольд, Мультфиль ...
  • Супер Майк / Magic Mike (Стивен Содерберг, Драма, комедия, 2012) [BDRip 108 ...
  • Патруль / End of Watch (Дэвид Эйр, Триллер, драма, криминал, 2012) [BDRip 7 ...
  • Шаг вперед 4 / Step Up Revolution (Скотт Спир, драма, мелодрама, музыка, 20 ...
  • Шаг вперед 4 / Step Up Revolution (Скотт Спир, драма, мелодрама, музыка, 20 ...
  • Шаг вперед 4 / Step Up Revolution (Скотт Спир, драма, мелодрама, музыка, 20 ...
  • [Phone, iPod] Шаг вперед 4 / Step Up Revolution (Скотт Спир, драма, мелодра ...
  • [3D] Шаг вперед 4 / Step Up Revolution (Скотт Спир, драма, мелодрама, музык ...
  • Шаг вперед 4 / Step Up Revolution (Скотт Спир, Драма, мелодрама, музыка, 20 ...
  • Шаг вперед 4 / Step Up Revolution (Скотт Спир, Драма, мелодрама, музыка, 20 ...
  • Шаг вперед 4 / Step Up Revolution (Скотт Спир, Драма, мелодрама, музыка, 20 ...
  • Шаг вперед 4 / Step Up Revolution (Скотт Спир, Драма, мелодрама, музыка, 20 ...
  • Информация
    Посетители, находящиеся в группе Гости, не могут оставлять комментарии к данной публикации.