вход на сайт

Имя пользователя :
Пароль :

Восстановление пароля Регистрация
Шаг вперед 4 / Step Up Revolution (Скотт Спир, Драма, мелодрама, музыка, 2012) [HDRip-AVC, Дубляж]
Рейтинг:
(голосов: 1)



[img]{THEME}/images/logopost.png[/img]



Шаг вперед 4 / Step Up Revolution
«Горячее не бывает»


Год выпуска: 2012
Страна: США
Производство: Offspring Entertainment, Summit Entertainment
Жанр: драма, мелодрама, музыка

Режиссёр: Скотт Спир
В ролях: Райан Гузман, Кэтрин МакКормик, Миша Гэбриел Хэмилтон, Клеопатра Коулмэн, Стивен Стэннерт, Томми Дьюи, Питер Галлахер, Майкл «Ксено» Лэнджбек, Клаудио Пинто, Николь Дабо

Перевод: Дубляж
Субтитры: Отсутствуют

Описание: Эмили, дочь влиятельного бизнесмена, приезжает в Майами с намерением стать профессиональной танцовщицей, но влюбляется в Шона — юношу, чья танцевальная труппа устраивает музыкальные флэшмобы. Команда, называющаяся MOB, участвует в конкурсе с внушительным денежным призом, а тем временем отец Эмили намеревается перестроить родной район ребят и переселить тысячи людей. Эмили присоединяется к танцорам и организует протестные мобы, рискуя не осуществить мечту, но сражаясь за нечто более важное.




Качество: HDRip-AVC |Сэмпл
Продолжительность: 01:38:39 час.


Формат: MKV
Видео кодек: x264
Аудио кодек: AC3
Видео: 960x400(2,40:1), 23,976 fps, x264 ~1 659 kbps avg, 0.180 bit/pixel
Аудио: 48 kHz, AC3 Dolby Digital, 3/2 (L,C,R,l,r) + LFE ch, ~448 kbps- (Дубляж)

Дата премьеры (мир): 26 июля 2012
Дата премьеры (РФ): 26 июля 2012, «West»

MediaInfo| ▼
Уникальный идентификатор : 223828796015954327241242173423060981980 (0xA863DBAA3C1BC7E29A3A4F147D1B18DC)
Формат : Matroska
Размер файла : 1,45 Гбайт
Продолжительность : 1 ч. 38 м.
Общий поток : 2108 Кбит/сек
Название фильма : Step Up Revolution (2012) (rip by S.T.A.L.K.E.R.2)
Дата кодирования : UTC 2012-12-02 06:51:37
Программа кодирования : mkvmerge v5.6.0 (Kenya Kane) built on May 27 2012 16:44:04
Библиотека кодирования : libebml v1.2.3 + libmatroska v1.3.0

Видео
Идентификатор : 1
Формат : AVC
Формат/Информация : Advanced Video Codec
Профиль формата : [email protected]
Параметр CABAC формата : Да
Параметр ReFrames формата : 10 кадры
Параметры GOP формата : M=13, N=30
Идентификатор кодека : V_MPEG4/ISO/AVC
Продолжительность : 1 ч. 38 м.
Битрейт : 1659 Кбит/сек
Ширина : 960 пикс.
Высота : 400 пикс.
Соотношение сторон : 2,40:1
Частота кадров : 23,976 кадр/сек
Цветовое пространство : YUV
Подвыборка цветности : 4:2:0
Битовая глубина : 8 бит
Тип развёртки : Прогрессивная
Бит/(Пиксели*Кадры) : 0.180
Размер потока : 1,12 Гбайт (77%)
Библиотека кодирования : x264 core 125 r2200 999b753
Настройки программы : cabac=1 / ref=10 / deblock=1:-2:-1 / analyse=0x3:0x113 / me=umh / subme=10 / psy=1 / psy_rd=1.00:0.05 / mixed_ref=1 / me_range=32 / chroma_me=1 / trellis=2 / 8x8dct=1 / cqm=0 / deadzone=21,11 / fast_pskip=0 / chroma_qp_offset=-3 / threads=6 / lookahead_threads=1 / sliced_threads=0 / nr=0 / decimate=0 / interlaced=0 / bluray_compat=0 / constrained_intra=0 / bframes=12 / b_pyramid=2 / b_adapt=2 / b_bias=0 / direct=1 / weightb=1 / open_gop=0 / weightp=2 / keyint=240 / keyint_min=23 / scenecut=40 / intra_refresh=0 / rc_lookahead=40 / rc=2pass / mbtree=1 / bitrate=1659 / ratetol=1.0 / qcomp=0.60 / qpmin=10 / qpmax=51 / qpstep=4 / cplxblur=20.0 / qblur=0.5 / vbv_maxrate=50000 / vbv_bufsize=50000 / nal_hrd=none / ip_ratio=1.40 / aq=1:1.00
Язык : English

Аудио
Идентификатор : 2
Формат : AC-3
Формат/Информация : Audio Coding 3
Расширение режима : CM (complete main)
Идентификатор кодека : A_AC3
Продолжительность : 1 ч. 38 м.
Вид битрейта : Постоянный
Битрейт : 448 Кбит/сек
Канал(ы) : 6 канала(ов)
Расположение каналов : Front: L C R, Side: L R, LFE
Частота : 48,0 КГц
Битовая глубина : 16 бит
Метод сжатия : С потерями
Размер потока : 316 Мбайт (21%)
Заголовок : Dub - License
Язык : Russian





&nbs
0f33816913bb46626caa5ca96d1a46d48ba1605bШаг вперед 4 / Step Up Revolution (Скотт Спир, Драма, мелодрама, музыка, 2012) [HDRip-AVC, Дубляж] Шаг вперед 4 / Step Up Revolution (Скотт Спир, Драма, мелодрама, музыка, 2012) [HDRip-AVC, Дубляж] " />

Аплоадер: Админ, дата: 2-12-2012, 23:36, торрент скачан: 359 раз

Понравилась раздача? Посмотрите эти:
  • Мрачные небеса / Dark Skies (Скотт Чарльз Стюарт, ужасы, фантастика, трилле ...
  • Идеальный голос / Pitch Perfect (Джейсон Мур, Мелодрама, комедия, музыка, 2 ...
  • Переполох на районе / Les Kaira (Франк Гастамбиде, комедия, 2012) [HDRip-AV ...
  • Железный Кулак [Театральная версия] / The Man with the Iron Fists [Theatric ...
  • Страшно красив / Beastly (Даниел Барнз, фэнтези, драма, мелодрама, 2011) [H ...
  • Шаг вперед 3D / Step Up 3D (Джон М. Чу, драма, мелодрама, музыка, 2010) [BD ...
  • На Дороге / On The Road (Уолтер Саллес, Драма, приключения, 2012) [HDRip-AV ...
  • [EN] Шаг вперед 4 / Step Up Revolution (Скотт Спир, драма, мелодрама, музык ...
  • Патруль / End of Watch (Дэвид Эйр, Триллер, драма, криминал, 2012) [HDRip-A ...
  • Шаг вперед 4 / Step Up Revolution (Скотт Спир, Драма, мелодрама, музыка, 20 ...
  • Шаг вперед 4 / Step Up Revolution (Скотт Спир, Драма, мелодрама, музыка, 20 ...
  • Помогите Стать Отцом / Not Suitable For Children (Питер Темплмен, Мелодрама ...
  • [3D] Шаг вперед 4 / Step Up Revolution (Скотт Спир, драма, мелодрама, музык ...
  • [3D] Шаг вперед 4 / Step Up Revolution (Скотт Спир / Scott Speer, Мелодрама ...
  • Шаг вперед 3 / Step Up 3 (Джон М. Чу, драма, мелодрама, музыка, 2010) [BDRi ...
  • Счастливчик / The Lucky One (Скотт Хикс, Драма, мелодрама, 2012) [BDRip 108 ...
  • Шаг вперед 4 / Step Up Revolution (Скотт Спир, драма, мелодрама, музыка, 20 ...
  • Шаг вперед 4 / Step Up Revolution (Скотт Спир, драма, мелодрама, музыка, 20 ...
  • Шаг вперед 4 / Step Up Revolution (Скотт Спир, драма, мелодрама, музыка, 20 ...
  • [Phone, iPod] Шаг вперед 4 / Step Up Revolution (Скотт Спир, драма, мелодра ...
  • [3D] Шаг вперед 4 / Step Up Revolution (Скотт Спир, драма, мелодрама, музык ...
  • Шаг вперед 4 / Step Up Revolution (Скотт Спир, Драма, мелодрама, музыка, 20 ...
  • Шаг вперед 4 / Step Up Revolution (Скотт Спир, Драма, мелодрама, музыка, 20 ...
  • Шаг вперед 4 / Step Up Revolution (Скотт Спир, Драма, мелодрама, музыка, 20 ...
  • Шаг вперед 4 / Step Up Revolution (Скотт Спир, Драма, мелодрама, музыка, 20 ...
  • Информация
    Посетители, находящиеся в группе Гости, не могут оставлять комментарии к данной публикации.