вход на сайт

Имя пользователя :
Пароль :

Восстановление пароля Регистрация
Любовь С Препятствиями / Un Bonheur Narrive Jamais Seul (Джеймс Хат, Мелодрама, комедия, 2012) [BDRip-AVC, Дубляж]
Рейтинг:
(голосов: 1)



[img]{THEME}/images/logopost.png[/img]



Любовь С Препятствиями / Un Bonheur Narrive Jamais Seul


Год выпуска: 2012
Страна: Франция
Производство: Captain Movies, Eskwad, SPAD Films
Жанр: Мелодрама, комедия

Режиссёр: Джеймс Хат
В ролях: Софи Марсо, Гад Эльмалех, Морис Бартелеми, Франсуа Берлеан, Майкл Абитебул, Джули-Энн Рот, Маша Мериль, Франсуа Винчентелли

Перевод: Дубляж
Субтитры: Отсутствуют

Описание: Саша живет беззаботной и легкомысленной жизнью в окружении красивых девушек, друзей и музыки. Шарлота уже дважды успела побывать замужем и больше не собирается повторять своих ошибок. Хотя, как знать. Может, у судьбы свои планы?



Качество: BDRip-AVC| Сэмпл
Продолжительность:01:49:19 час.

Формат: MKV
Видео кодек: x264
Аудио кодек: AC3
Видео: 800x480 (16:9), 23.976 fps, x264 ~1 432 kbps avg, 0.156 bit/pixel
Аудио: 48 kHz, AC3 Dolby Digital, 3/2 (L,C,R,l,r) + LFE ch, ~448 kbps

Дата премьеры (мир): 13 июня 2012
Дата премьеры (РФ): 16 августа 2012, «Каскад»

MediaInfo| ▼
General
Unique ID : 250109675263221702606161933366748562840 (0xBC295F0D52A68FAC947160A7D0CCC598)
Complete name : D:Lubov.S.Prepyatstviyami.2012.BDRip-AVC.mkv
Format : Matroska
Format version : Version 2
File size : 1.47 GiB
Duration : 1h 49mn
Overall bit rate mode : Variable
Overall bit rate : 1 919 Kbps
Encoded date : UTC 2012-10-16 06:56:08
Writing application : mkvmerge v5.8.0 (No Sleep / Pillow) built on Sep 2 2012 15:37:04
Writing library : libebml v1.2.3 + libmatroska v1.3.0

Video
ID : 1
Format : AVC
Format/Info : Advanced Video Codec
Format profile : [email protected]
Format settings, CABAC : Yes
Format settings, ReFrames : 13 frames
Codec ID : V_MPEG4/ISO/AVC
Duration : 1h 49mn
Bit rate mode : Variable
Bit rate : 1 432 Kbps
Maximum bit rate : 40.0 Mbps
Width : 800 pixels
Height : 480 pixels
Display aspect ratio : 1.667
Frame rate : 23.976 fps
Color space : YUV
Chroma subsampling : 4:2:0
Bit depth : 8 bits
Scan type : Progressive
Bits/(Pixel*Frame) : 0.156
Stream size : 1.09 GiB (75%)
Writing library : x264 core 125 r2200 999b753
Encoding settings : cabac=1 / ref=13 / deblock=1:-2:-1 / analyse=0x3:0x113 / me=umh / subme=11 / psy=1 / psy_rd=0.95:0.00 / mixed_ref=1 / me_range=32 / chroma_me=1 / trellis=2 / 8x8dct=1 / cqm=0 / deadzone=21,11 / fast_pskip=1 / chroma_qp_offset=-2 / threads=6 / lookahead_threads=1 / sliced_threads=0 / nr=0 / decimate=1 / interlaced=0 / bluray_compat=0 / constrained_intra=0 / bframes=13 / b_pyramid=2 / b_adapt=2 / b_bias=0 / direct=1 / weightb=1 / open_gop=0 / weightp=2 / keyint=240 / keyint_min=24 / scenecut=40 / intra_refresh=0 / rc=crf / mbtree=0 / crf=19.1 / qcomp=0.70 / qpmin=10 / qpmax=51 / qpstep=4 / ip_ratio=1.40 / pb_ratio=1.30 / aq=2:0.9

Audio
ID : 2
Format : AC-3
Format/Info : Audio Coding 3
Mode extension : CM (complete main)
Codec ID : A_AC3
Duration : 1h 49mn
Bit rate mode : Constant
Bit rate : 448 Kbps
Channel(s) : 6 channels
Channel positions : Front: L C R, Side: L R, LFE
Sampling rate : 48.0 KHz
Bit depth : 16 bits
Compression mode : Lossy
Stream size : 350 MiB (23%)
Title : Dub
Language : Russian







3b7d6f520f579b7f79bd21521d7f643488bc0c40Любовь С Препятствиями / Un Bonheur Narrive Jamais Seul (Джеймс Хат, Мелодрама, комедия, 2012) [BDRip-AVC, Дубляж] Любовь С Препятствиями / Un Bonheur Narrive Jamais Seul (Джеймс Хат, Мелодрама, комедия, 2012) [BDRip-AVC, Дубляж] " />

Аплоадер: Админ, дата: 16-10-2012, 16:36, торрент скачан: 359 раз

Понравилась раздача? Посмотрите эти:
  • FLO / NRG [2012, Pop, Dance, MasterRip]
  • Замуж на 2 дня / Un plan parfait (Паскаль Шомель, Мелодрама, комедия, прикл ...
  • Весенние надежды / Hope Springs (Дэвид Фрэнкел, Драма, мелодрама, комедия, ...
  • Толстяк на ринге / Here Comes the Boom (Фрэнк Корачи, Боевик, комедия, 201 ...
  • Жажда странствий / Wanderlust (Дэвид Уэйн, Мелодрама, комедия, 2012) [BDRip ...
  • Любовь с препятствиями / Un bonheur narrive jamais seul (Джеймс Хат, мелодр ...
  • Любовь С Препятствиями / Un Bonheur Narrive Jamais Seul (Джеймс Хат, Мелодр ...
  • Любовь С Препятствиями / Un Bonheur Narrive Jamais Seul (Джеймс Хат, Мелодр ...
  • Любовь с препятствиями / Un bonheur narrive jamais seul (Джеймс Хат, мелодр ...
  • Любовь С Препятствиями / Un Bonheur Narrive Jamais Seul (Джеймс Хат, Мелодр ...
  • «Весёлые» каникулы / Get the Gringo (Адриан Грюнберг, Боевик, комедия, 2012 ...
  • Ворон / The Raven (Джеймс МакТиг, Триллер, детектив, 2012) [BDRip 720p, Дуб ...
  • Пираньи 3DD / Piranha 3DD (Джон Гулажер, ужасы, триллер, комедия, 2012) [BD ...
  • Рок на века / Rock of Ages (Адам Шенкман, Мюзикл, драма, мелодрама, комедия ...
  • Любовь С Препятствиями / Un Bonheur Narrive Jamais Seul (Джеймс Хат, Мелодр ...
  • Любовь С Препятствиями / Un Bonheur Narrive Jamais Seul (Джеймс Хат, Мелодр ...
  • Супер Майк / Magic Mike (Стивен Содерберг, Драма, комедия, 2012) [BDRip 108 ...
  • Любовь С Препятствиями / Un Bonheur Narrive Jamais Seul (Джеймс Хат, Мелодр ...
  • Mylene Farmer / Du Temps [2011, Pop, HDTVRip]
  • Madonna / Girl Gone Wild [2012, Pop, HDTV]
  • Информация
    Посетители, находящиеся в группе Гости, не могут оставлять комментарии к данной публикации.