вход на сайт

Имя пользователя :
Пароль :

Восстановление пароля Регистрация
Немножко женаты / The Five-Year Engagement (Николас Столлер, Мелодрама, комедия, 2012) [BDRip-AVC, Дубляж, Sub]
Рейтинг:
(голосов: 1)



[img]{THEME}/images/logopost.png[/img]



Немножко женаты / The Five-Year Engagement
«A comedy about the journey between popping the question and tying the knot.»


Год выпуска: 2012
Страна: США
Производство: Apatow Productions
Жанр: Мелодрама, комедия

Режиссёр: Николас Столлер
В ролях: Джейсон Сигел, Эмили Блант, Крис Прэтт, Элисон Бри, Лоурен Уидман, Мими Кеннеди, Дэвид Пэймер, Джеки Уивер, Джим Пиддок, Эрик Купер

Перевод: Дубляж
Субтитры: Русские, английские, украинские

Описание: Он — предложил, она — согласилась! Казалось бы, дело в шляпе — почти женаты. Но свадьба становится невыполнимой миссией, когда в дело вступает отряд бывших подружек жениха, босс невесты, трещащий по швам список гостей и престарелые родственники, имеющие тенденцию умирать в самый неподходящий момент. И вроде бы немножко женаты, но все как-то не до конца…
Качество: BDRip-AVC
Продолжительность: 02:04:27 час.


Формат: MKV
Видео кодек: x264
Аудио кодек: AC3
Видео: 800x434 (1.85:1), 23.976 fps, x264 ~1 280 kbps avg, 0.154 bit/pixel
Аудио: 48 kHz, AC3 Dolby Digital, 3/2 (L,C,R,l,r) + LFE ch, ~384 kbps - (Дубляж)

Дата премьеры (мир): 27 апреля 2012
Дата премьеры (РФ): 28 июня 2012, «UPI»

MediaInfo ▼General
Unique ID : 223171904932634293505227578782079264949 (0xA7E5586F1EF27E4C896EB59CABA428B5)
Complete name : E:Nemnozhko.zhenaty.2012.x264.BDRip.(AVC).fanatus.mkv
Format : Matroska
Format version : Version 2
File size : 1.45 GiB
Duration : 2h 4mn
Overall bit rate : 1 666 Kbps
Movie name : The Five-Year Engagement (2012) - fanatus
Encoded date : UTC 2012-09-13 18:06:06
Writing application : mkvmerge v3.4.0 (Rapunzel) сборка от May 15 2010 09:38:20
Writing library : libebml v0.8.0 + libmatroska v0.9.0

Video
ID : 1
Format : AVC
Format/Info : Advanced Video Codec
Format profile : [email protected]
Format settings, CABAC : Yes
Format settings, ReFrames : 12 frames
Codec ID : V_MPEG4/ISO/AVC
Duration : 2h 4mn
Bit rate : 1 280 Kbps
Width : 800 pixels
Height : 434 pixels
Display aspect ratio : 1.85:1
Frame rate : 23.976 fps
Color space : YUV
Chroma subsampling : 4:2:0
Bit depth : 8 bits
Scan type : Progressive
Bits/(Pixel*Frame) : 0.154
Stream size : 1.08 GiB (75%)
Title : The Five-Year Engagement (2012)
Writing library : x264 core 125 r2208 d9d2288
Encoding settings : cabac=1 / ref=12 / deblock=1:-3:-3 / analyse=0x3:0x133 / me=umh / subme=11 / psy=1 / psy_rd=1.00:0.05 / mixed_ref=1 / me_range=32 / chroma_me=1 / trellis=2 / 8x8dct=1 / cqm=0 / deadzone=21,11 / fast_pskip=0 / chroma_qp_offset=-3 / threads=16 / lookahead_threads=2 / sliced_threads=0 / nr=0 / decimate=0 / interlaced=0 / bluray_compat=0 / constrained_intra=0 / bframes=12 / b_pyramid=2 / b_adapt=2 / b_bias=0 / direct=3 / weightb=1 / open_gop=0 / weightp=2 / keyint=240 / keyint_min=23 / scenecut=40 / intra_refresh=0 / rc_lookahead=120 / rc=2pass / mbtree=1 / bitrate=1280 / ratetol=1.0 / qcomp=0.60 / qpmin=0 / qpmax=69 / qpstep=4 / cplxblur=20.0 / qblur=0.5 / ip_ratio=1.40 / aq=2:0.90
Language : English
Default : Yes
Forced : No

Audio
ID : 2
Format : AC-3
Format/Info : Audio Coding 3
Mode extension : CM (complete main)
Format settings, Endianness : Big
Codec ID : A_AC3
Duration : 2h 4mn
Bit rate mode : Constant
Bit rate : 384 Kbps
Channel(s) : 6 channels
Channel positions : Front: L C R, Side: L R, LFE
Sampling rate : 48.0 KHz
Bit depth : 16 bits
Compression mode : Lossy
Stream size : 342 MiB (23%)
Title : Dub
Language : Russian
Default : Yes
Forced : Yes

Text #1
ID : 3
Format : UTF-8
Codec ID : S_TEXT/UTF8
Codec ID/Info : UTF-8 Plain Text
Title : Forced
Language : Russian
Default : Yes
Forced : Yes

Text #2
ID : 4
Format : UTF-8
Codec ID : S_TEXT/UTF8
Codec ID/Info : UTF-8 Plain Text
Title : Full
Language : Russian
Default : No
Forced : No

Text #3
ID : 5
Format : UTF-8
Codec ID : S_TEXT/UTF8
Codec ID/Info : UTF-8 Plain Text
Title : SDH
Language : En
c164a88fa4b1bc2d0e957db72f0a72f2a19df338Немножко женаты / The Five-Year Engagement (Николас Столлер, Мелодрама, комедия, 2012) [BDRip-AVC, Дубляж, Sub] Немножко женаты / The Five-Year Engagement (Николас Столлер, Мелодрама, комедия, 2012) [BDRip-AVC, Дубляж, Sub] " />

Аплоадер: Админ, дата: 14-09-2012, 07:53, торрент скачан: 359 раз

Понравилась раздача? Посмотрите эти:
  • Даю год / I Give It a Year (Дэн Мазер, Мелодрама, Комедия, 2013) [BDRip-AVC ...
  • UFC - Best Of 2012 Year In Review[MMA,2013, BDRip 540p]
  • Немножко женаты / The Five-Year Engagement (Николас Столлер, мелодрама, ком ...
  • 007: Координаты «Скайфолл» / Skyfall (Сэм Мендес, Боевик, триллер, криминал ...
  • Суррогат / The Sessions (Бен Луин, драма, 2012) [BDRip 720p, Профессиональн ...
  • Зубная фея 2 / Tooth Fairy 2 (Алекс Замм, комедия, семейный, 2012) [BDRip 7 ...
  • Бедная богатая девочка / Young Adult (Джейсон Райтман, драма, комедия, 2011 ...
  • Жажда странствий / Wanderlust (Дэвид Уэйн, Мелодрама, комедия, 2012) [BDRip ...
  • Жажда странствий / Wanderlust (Дэвид Уэйн, Мелодрама, комедия, 2012) [BDRip ...
  • Немножко женаты / The Five-Year Engagement (Николас Столлер, Мелодрама, ко ...
  • Немножко женаты / The Five-Year Engagement (Николас Столлер, мелодрама, 201 ...
  • Немножко женаты / The Five-Year Engagement (Николас Столлер, Мелодрама, ком ...
  • Немножко женаты [Расширенная версия] / The Five-Year Engagement [UNRATED] ...
  • Немножко женаты / The Five-Year Engagement (Николас Столлер, Мелодрама, ком ...
  • Красные огни / Red Lights (Родриго Кортес, Ужасы, триллер, драма, 2012) [BD ...
  • Белоснежка и охотник [Театральная версия] / Snow White and the Huntsman [Th ...
  • Немножко женаты / The Five-Year Engagement (Николас Столлер, Мелодрама, ком ...
  • Супер Майк / Magic Mike (Стивен Содерберг, Драма, комедия, 2012) [BDRip 108 ...
  • Немножко женаты / The Five-Year Engagement [UNRATED] (Николас Столлер, Мело ...
  • Немножко женаты / The Five-Year Engagement (Николас Столлер, мелодрама, 201 ...
  • Немножко женаты / The Five-Year Engagement (Николас Столлер, Мелодрама, ком ...
  • Немножко женаты / The Five-Year Engagement (Николас Столлер, Мелодрама, ком ...
  • Немножко женаты [Расширенная версия] / The Five-Year Engagement [UNRATED] ...
  • Немножко женаты [Расширенная версия] / The Five-Year Engagement [UNRATED] ...
  • Немножко женаты / The Five-Year Engagement (Николас Столлер, мелодрама, ком ...
  • Информация
    Посетители, находящиеся в группе Гости, не могут оставлять комментарии к данной публикации.