вход на сайт

Имя пользователя :
Пароль :

Восстановление пароля Регистрация
В ритме сердца / Sur le rythme (Шарль Оливье-Мишо, Мелодрама, 2011) [BDRip-AVC, Дубляж, Оригинал]
Рейтинг:
(голосов: 1)



[img]{THEME}/images/logopost.png[/img]



В ритме сердца / Sur le rythme
«Грязные танцы нового поколения»


Год выпуска: 2011
Страна: Канада
Производство: Gaèa Films
Жанр: Мелодрама

Режиссёр: Шарль Оливье-Мишо
В ролях: Милен Сен-Совер, Нико Аршамбо, Френс Кастель, Марина Орсини, Пол Дусе, Алексия Гурд, Лина Росслер, Дави Бойсверт, Дэнни Амарал Де Матос

Перевод: Дубляж, Оригинал
Субтитры: Отсутствуют

Описание: Дельфина — студентка престижного колледжа из хорошей семьи. Марк не знает своего отца, зато хорошо знаком с законами улиц, и легко сведет с ума любую девушку. Она мечтает стать профессиональным танцором. Без него не обходится ни одна зажигательная дискотека города. Им предстоит вместе пройти кастинг и выиграть участие в мировом турне с одним из лучших танцевальных шоу! Колледж заброшен, родители — не в курсе, лучшая подруга — соперница по кастингу и влюблена в Марка, но все это не важно, потому что главное — это сделать самый лучший танец и победить!

Качество: BDRip-AVC
Продолжительность: 01:32:50 час.


Формат: MKV
Видео кодек: x264
Аудио кодек: AC3, DTS
Видео:1280x544 (2.35:1), 24 fps, x264 ~3912 kbps avg, 0.234 bit/pixel
Аудио#1: 48 kHz, AC3 Dolby Digital, 3/2 (L,C,R,l,r) + LFE ch, ~448 kbps avg (Дубляж)
Аудио#2: 48 kHz, DTS, 3/2 (L,C,R,l,r) + LFE ch, ~1536.00 kbps avg (Оригинал)

Дата премьеры (мир): 12 августа 2011
Дата премьеры (РФ): 9 августа 2012, «Кинопром», «All Media»

MediaInfo ▼General
Complete name : V.ritme.serdca.2011.D.BDRip.720p.IRONCLUB.mkv
Format : Matroska
Format version : Version 2
File size : 3.88 GiB
Duration : 1h 32mn
Overall bit rate : 5 989 Kbps
Movie name : IRONCLUB
Encoded date : UTC 2012-09-11 17:13:48
Writing application : mkvmerge v4.9.1 (Ich will) сборка от Jul 11 2011 23:53:15
Writing library : libebml v1.2.1 + libmatroska v1.1.1

Video
ID : 1
Format : AVC
Format/Info : Advanced Video Codec
Format profile : [email protected]
Format settings, CABAC : Yes
Format settings, ReFrames : 9 frames
Codec ID : V_MPEG4/ISO/AVC
Duration : 1h 32mn
Bit rate : 3 912 Kbps
Width : 1 280 pixels
Height : 544 pixels
Display aspect ratio : 2.35:1
Frame rate : 24.000 fps
Color space : YUV
Chroma subsampling : 4:2:0
Bit depth : 8 bits
Scan type : Progressive
Bits/(Pixel*Frame) : 0.234
Stream size : 2.54 GiB (65%)
Title : On.The.Beat.2011.BluRay.720p.x264.DTS-HDChina
Writing library : x264 core 125 r2200 999b753
Encoding settings : cabac=1 / ref=9 / deblock=1:-1:-1 / analyse=0x3:0x133 / me=umh / subme=10 / psy=1 / psy_rd=1.00:0.10 / mixed_ref=1 / me_range=32 / chroma_me=1 / trellis=2 / 8x8dct=1 / cqm=0 / deadzone=21,11 / fast_pskip=0 / chroma_qp_offset=-3 / threads=24 / lookahead_threads=4 / sliced_threads=0 / nr=0 / decimate=0 / interlaced=0 / bluray_compat=0 / constrained_intra=0 / bframes=8 / b_pyramid=2 / b_adapt=2 / b_bias=0 / direct=3 / weightb=1 / open_gop=0 / weightp=2 / keyint=360 / keyint_min=2 / scenecut=40 / intra_refresh=0 / rc_lookahead=250 / rc=crf / mbtree=1 / crf=17.5 / qcomp=0.70 / qpmin=0 / qpmax=69 / qpstep=4 / ip_ratio=1.40 / aq=2:1.00
Language : German
Default : Yes
Forced : No

Audio #1
ID : 2
Format : AC-3
Format/Info : Audio Coding 3
Mode extension : CM (complete main)
Format settings, Endianness : Big
Codec ID : A_AC3
Duration : 1h 32mn
Bit rate mode : Constant
Bit rate : 448 Kbps
Channel(s) : 6 channels
Channel positions : Front: L C R, Side: L R, LFE
Sampling rate : 48.0 KHz
Bit depth : 16 bits
Compression mode : Lossy
Stream size : 297 MiB (7%)
Title : DUB R5
Language : Russian
Default : Yes
Forced : Yes

Audio #2
ID : 3
Format : DTS
Format/Info : Digital Theater Systems
Codec ID : A_DTS
Duration : 1h 32mn
Bit rate mode : Constant
Bit rate : 1 510 Kbps
Channel(s) : 6 channels
Channel positions : Front: L C R, Side: L R, LFE
Sampling rate : 48.0 KHz
Bit depth : 24 bits
Compression mode : Lossy
Stream size : 1 002 MiB (25%)
Title : Origi
9e6805ca4d31f6c7613c31630bf178cfda0db46aВ ритме сердца / Sur le rythme (Шарль Оливье-Мишо, Мелодрама, 2011) [BDRip-AVC, Дубляж, Оригинал] В ритме сердца / Sur le rythme (Шарль Оливье-Мишо, Мелодрама, 2011) [BDRip-AVC, Дубляж, Оригинал] " />

Аплоадер: Админ, дата: 12-09-2012, 00:54, торрент скачан: 359 раз

Понравилась раздача? Посмотрите эти:
  • Весенние надежды / Hope Springs (Дэвид Фрэнкел, Драма, мелодрама, комедия, ...
  • Толстяк на ринге / Here Comes the Boom (Фрэнк Корачи, Боевик, комедия, 201 ...
  • Хорошо быть тихоней / The Perks of Being a Wallflower (Стивен Чбоски, Драма ...
  • В ритме сердца / Sur le rythme (Шарль Оливье-Мишо, Мелодрама, 2011) [HDRip, ...
  • В ритме сердца / Sur le rythme (Шарль Оливье-Мишо, Мелодрама, 2011) [BDRip- ...
  • «Старый» Новый год / New Years Eve (Гэрри Маршалл, мелодрама, комедия, 2011 ...
  • Джок / Jock (Дункан МакНили, мультфильм, комедия, приключения, семейный, 20 ...
  • «Весёлые» каникулы / Get the Gringo (Адриан Грюнберг, Боевик, комедия, 2012 ...
  • Ворон / The Raven (Джеймс МакТиг, Триллер, детектив, 2012) [BDRip 720p, Дуб ...
  • Пираньи 3DD / Piranha 3DD (Джон Гулажер, ужасы, триллер, комедия, 2012) [BD ...
  • Цветы войны / Jin líng shí san chai (Чжан Имоу, драма, военный, история, 20 ...
  • Немножко женаты / The Five-Year Engagement (Николас Столлер, Мелодрама, ком ...
  • В ритме сердца / Sur le rythme (Шарль Оливье-Мишо, Мелодрама, 2011) [BDRip ...
  • В ритме сердца / Sur le rythme (Шарль Оливье-Мишо, Мелодрама, 2011) [BD-Rem ...
  • Рок на века / Rock of Ages (Адам Шенкман, Мюзикл, драма, мелодрама, комедия ...
  • Супер Майк / Magic Mike (Стивен Содерберг, Драма, комедия, 2012) [BDRip 720 ...
  • На Дороге / On The Road (Уолтер Саллес, Драма, приключения, 2012) [BDRip 72 ...
  • Явление / The Apparition (Тодд Линкольн, Ужасы, триллер, 2012) [BDRip 720p, ...
  • Странная жизнь Тимоти Грина / The Odd Life of Timothy Green (Питер Хеджес, ...
  • В ритме сердца / Sur le rythme (Шарль Оливье-Мишо, мелодрама, 2011) [HDRip, ...
  • Информация
    Посетители, находящиеся в группе Гости, не могут оставлять комментарии к данной публикации.