вход на сайт

Имя пользователя :
Пароль :

Восстановление пароля Регистрация
Уличные танцы 2 / StreetDance 2 (Макс Джива, Дания Пасквини, мелодрама, музыка, 2012) [BDRip - AVC, Дублированный + Оригинал + SUB]
Рейтинг:
(голосов: 1)



[img]{THEME}/images/logopost.png[/img]



Уличные танцы 2 / StreetDance 2
«В два раза больше энергии и страсти»

Год выпуска: 2012
Страна: Германия Великобритания
Производство: BBC Films, British Film Institute (BFI), Deutsche Filmförderfonds (DFFF), Еagle Pictures, Film1, Square One Entertainment, Vertigo Films
Жанр: мелодрама, музыка

Режиссёр: Макс Джива | Max Jiva, Дания Пасквини | Denmark Pasquini
В ролях: София Бутелла, Джордж Сэмпсон, Том Конти, Фальк Хеншел, Стефани Нгуйен, Элла Рэгг, Джоанна Джеффрис, Джеймс Майкл Ранкин, Ли Крэвен, Элизабетта Ди Карло

Перевод: 1 - Профессиональный (полное дублирование)
2 - Оригинал (Английский)
Субтитры: Русские, Английские

Описание:
Уличный танцор Эш жаждет реванша за проигрыш на конкурсе Streetdance, и хочет собрать команду, которой не будет равных. В поисках, которые забрасывают его в самые разные уголки мира, Эш встречает девушку Еву, танцующую сальсу, и влюбляется в нее. В Еве он видит свое счастье, свой собственный танец, свою победу… Но завоевать сердце этой девушки не так просто.
Свобода самовыражения и мастерство импровизации, страсть сальсы и дерзость ринга — все это танцы, танцы, танцы — в школах, в клубах, на улицах Рима, Парижа, Лондона, Нью-Йорка.



Дата премьеры (мир): 29 марта 2012
Дата премьеры (РФ): 26 апреля 2012, «Парадиз»
Релиз на DVD: 31 июля 2012, «Парадиз Медиа»
Релиз на Blu-Ray: 31 июля 2012, «Парадиз Медиа»

Качество: BDRip - AVC | Blu-Ray Remux (1080p)
Продолжительность: 01:24:56 час.

Формат: MKV
Видео кодек: H.264
Аудио кодек: AC3
Видео: 1024х552 (1,855:1), 23.976 fps, H.264 ~2 902 kbps avg, 0.209 bit/pixel
Аудио #1: 48 kHz, AC3, 3/2 (L,C,R,l,r) + LFE ch, ~384.00 kbps avg | Профессиональный (полное дублирование)
Аудио #2: 48 kHz, AC3, 3/2 (L,C,R,l,r) + LFE ch, ~384.00 kbps avg | Оригинал (Английский)
MediaInfo ▼General
Complete name : K:Ulichnye.Tantsy.2.2012.x264.BDRip.(AVC).mkv
Format : Matroska
File size : 2.18 GiB
Duration : 1h 24mn
Overall bit rate : 3 670 Kbps
Movie name : =Kinozal.tv= by =parravoz=
Encoded date : UTC 2012-07-28 02:14:21
Writing application : mkvmerge v4.6.0 (Still Crazy After All These Years) сборка от Apr 1 2011 21:01:49
Writing library : libebml v1.2.0 + libmatroska v1.1.0
Video #1
ID : 1
Format : AVC
Format/Info : Advanced Video Codec
Format profile : [email protected]
Format settings, CABAC : Yes
Format settings, ReFrames : 10 frames
Muxing mode : Container [email protected]
Codec ID : V_MPEG4/ISO/AVC
Duration : 1h 24mn
Bit rate : 2 829 Kbps
Nominal bit rate : 2 902 Kbps
Width : 1 024 pixels
Height : 552 pixels
Display aspect ratio : 1.855
Frame rate : 23.976 fps
Resolution : 8 bits
Colorimetry : 4:2:0
Scan type : Progressive
Bits/(Pixel*Frame) : 0.209
Stream size : 1.68 GiB (77%)
Title : Ulichnye tantsy 2 / StreetDance 2
Writing library : x264 core 125 r2200 999b753
Encoding settings : cabac=1 / ref=10 / deblock=1:-3:-3 / analyse=0x3:0x133 / me=umh / subme=10 / psy=1 / psy_rd=1.00:0.10 / mixed_ref=1 / me_range=48 / chroma_me=1 / trellis=2 / 8x8dct=1 / cqm=0 / deadzone=21,11 / fast_pskip=0 / chroma_qp_offset=-3 / threads=6 / lookahead_threads=1 / sliced_threads=0 / nr=0 / decimate=1 / interlaced=0 / bluray_compat=0 / constrained_intra=0 / bframes=6 / b_pyramid=2 / b_adapt=2 / b_bias=0 / direct=3 / weightb=1 / open_gop=0 / weightp=2 / keyint=240 / keyint_min=22 / scenecut=40 / intra_refresh=0 / rc_lookahead=40 / rc=2pass / mbtree=1 / bitrate=2902 / ratetol=1.0 / qcomp=0.60 / qpmin=10 / qpmax=51 / qpstep=4 / cplxblur=20.0 / qblur=0.5 / ip_ratio=1.40 / aq=1:1.00
Audio #2
ID : 2
Format : AC-3
Format/Info : Audio Coding 3
Codec ID : A_AC3
Duration : 1h 24mn
Bit rate mode : Constant
Bit rate : 384 Kbps
Channel(s) : 6 channels
Channel positions : Front: L C R, Surround: L R, LFE
Sampling rate : 48.0 KHz
Stream size : 233 MiB (10%)
Title : DUB (R5)
Language : Russian
Audio #3
ID : 3
Format : AC-3
Format/Info : Audio Coding 3
C
cf5590aea27d70352176a44b0d7be5a1796d6311Уличные танцы 2 / StreetDance 2 (Макс Джива, Дания Пасквини, мелодрама, музыка, 2012) [BDRip - AVC, Дублированный + Оригинал + SUB] Уличные танцы 2 / StreetDance 2 (Макс Джива, Дания Пасквини, мелодрама, музыка, 2012) [BDRip - AVC, Дублированный + Оригинал + SUB] " />

Аплоадер: Админ, дата: 28-07-2012, 14:43, торрент скачан: 359 раз

Понравилась раздача? Посмотрите эти:
  • FLO / NRG [2012, Pop, Dance, MasterRip]
  • Семь психопатов / Seven Psychopaths (Мартин МакДона, Триллер, комедия, крим ...
  • Жизнь Пи / Life Of Pi (Энг Ли, Драма, приключения, 2012) [BDRip 1080p, Проф ...
  • Хорошо быть тихоней / The Perks of Being a Wallflower (Стивен Чбоски, Драма ...
  • Уличные танцы / Street Dance (Макс Джива / Max Giwa, Дания Паскини / Dania ...
  • Уличные танцы / Street Dance (Макс Джива / мелодрама, музыка / 2010) [HDRip ...
  • Уличные танцы / Street Dance (Макс Джива, Дания Пасквини, мелодрама, музыка ...
  • Уличные танцы 2 / StreetDance 2 (Макс Джива, Дания Пасквини, мелодрама, муз ...
  • Королевство полной луны / Moonrise Kingdom (Уэс Андерсон, драма, комедия, 2 ...
  • Уличные танцы 2 / StreetDance 2 (Макс Джива, Дания Пасквини, Мелодрама, муз ...
  • Шаг вперед 4 / Step Up Revolution (Скотт Спир, Драма, мелодрама, музыка, 20 ...
  • Звездный десант: Вторжение / Starship Troopers: Invasion (Синдзи Арамаки, м ...
  • [3D] Уличные танцы 3Д / Street Dance 3D (Макс Джива / Max Jiva, 2010 г., ме ...
  • [3D] Уличные танцы / Street Dance (Макс Джива, Дания Пасквини / Max Giwa, D ...
  • [3D] Уличные танцы 2 / StreetDance 2 (Макс Джива, Дания Пасквини / Max Giwa ...
  • Мой парень из зоопарка / Zookeeper (Фрэнк Корачи, мелодрама, комедия, семей ...
  • Значит, война / This Means War (МакДжи, боевик, мелодрама, комедия, 2012) [ ...
  • Уличные танцы 2 / StreetDance 2 (Макс Джива, Дания Пасквини, мелодрама, муз ...
  • Помогите Стать Отцом / Not Suitable For Children (Питер Темплмен, Мелодрама ...
  • Титаник / Titanic (Джеймс Кэмерон, драма, мелодрама, 1997) [BDRip - AVC, Ду ...
  • Уличные танцы / Street Dance (Макс Джива / Max Giwa, Дания Паскини / Dania ...
  • Уличные танцы 3D / Street Dance 3D (Макс Джива, Дания Пасквини, Мелодрама, ...
  • Уличные танцы / Street Dance (Макс Джива, Мелодрама, музыка, 2010) [BDRip, ...
  • Уличные танцы 2 / StreetDance 2 (Макс Джива, Дания Пасквини / Max Giwa, Dan ...
  • Уличные танцы 2 / StreetDance 2 (Макс Джива, Дания Пасквини, Мелодрама, муз ...
  • Информация
    Посетители, находящиеся в группе Гости, не могут оставлять комментарии к данной публикации.