вход на сайт

Имя пользователя :
Пароль :

Восстановление пароля Регистрация
Без всего / Sin ella (Джордже Колон, Мелодрама, 2010) [HDTVRip , Профессиональный (многоголосый, закадровый)]
Рейтинг:
(голосов: 1)



[img]{THEME}/images/logopost.png[/img]



♥ Без всего / Sin ella ♥

♥ Год выпуска: 2010
♥ Страна: Мексика
♥ Производство: Miravista Production
♥ Жанр: Мелодрама

♥ Режиссёр: Джордже Колон
♥ В ролях: Алехандро Калва, Луис Арриета, Фернандо Чангеротти, Лола Дуэньяс, Франсиско Гатторно, Луис Р. Гузман, Паола Нуньес, Алан Санчез, Гаэль Санчез

♥ Перевод: Профессиональный (многоголосый, закадровый)
♥ Субтитры: Нет

♥ Описание: Один миг переворачивает жизнь известного режиссера с ног на голову: погибает жена. Несмотря на то, что супруги состояли в разводе, мужчина сразу понимает: он потерял свою единственную любовь и её уже никогда не вернет. Он забирает к себе детей, не догадываясь о том, какой сюрприз готовит ему их отчим…


IMDB: рейтинг 5.00 (36)
КиноПоиск: рейтинг 7.565 (23)


♥ Качество: HDTVRip
♥ Продолжительность: 01:44:57 час
"Media Info" ▼TextC:UsersÍóðáåêDownloadsBez.vsego.2010.XviD.HDTVRip.avi
General
Complete name : C:UsersÍóðáåêDownloadsBez.vsego.2010.XviD.HDTVRip.avi
Format : AVI
Format/Info : Audio Video Interleave
File size : 1.45 GiB
Duration : 1h 44mn
Overall bit rate : 1 980 Kbps
Writing application : VirtualDubMod 1.5.10.3 | www.virtualdub-fr.org || (build 2550/release)
Writing library : VirtualDubMod build 2550/release
Video #0
ID : 0
Format : MPEG-4 Visual
Format profile : Advanced [email protected]
Format settings, BVOP : Yes
Format settings, QPel : No
Format settings, GMC : No warppoints
Format settings, Matrix : Default (H.263)
Codec ID : XVID
Codec ID/Hint : XviD
Duration : 1h 44mn
Bit rate : 1 757 Kbps
Width : 720 pixels
Height : 304 pixels
Display aspect ratio : 2.35:1
Frame rate : 29.970 fps
Resolution : 8 bits
Colorimetry : 4:2:0
Scan type : Progressive
Bits/(Pixel*Frame) : 0.268
Stream size : 1.29 GiB (89%)
Writing library : XviD 1.2.1 (UTC 2008-12-04)
Audio #1
ID : 1
Format : MPEG Audio
Format version : Version 1
Format profile : Layer 3
Mode : Joint stereo
Format_Settings_ModeExtension : MS Stereo
Codec ID : 55
Codec ID/Hint : MP3
Duration : 1h 44mn
Bit rate mode : Variable
Bit rate : 209 Kbps
Nominal bit rate : 224 Kbps
Channel(s) : 2 channels
Sampling rate : 48.0 KHz
Stream size : 157 MiB (11%)
Alignment : Aligned on interleaves
Interleave, duration : 24 ms (0.72 video frame)
Interleave, preload duration : 545 ms
Writing library : LAME3.98r
Encoding settings : -m j -V 4 -q 2 -lowpass 19.4 --abr 224
♥ Формат: AVI
♥ Видео кодек: XviD
♥ Аудио кодек: MP3
♥ Видео: 720x304, XviD, 29.970 fps, Bit rate ~1757 Kbps, 0.268 bit/pixel
♥ Аудио: MP3, 48.0 KHz, 2 channels, 224 Кбит/с


e1ec5ab28e728d4003379e355f7d5baf13ad6ea6Без всего / Sin ella (Джордже Колон, Мелодрама, 2010) [HDTVRip , Профессиональный (многоголосый, закадровый)] Без всего / Sin ella (Джордже Колон, Мелодрама, 2010) [HDTVRip , Профессиональный (многоголосый, закадровый)] " />

Аплоадер: Админ, дата: 10-05-2012, 16:47, торрент скачан: 359 раз

Понравилась раздача? Посмотрите эти:
  • Погнали! / Getaway (Кортни Соломон, Боевик,Криминал, 2013) [HDRip, Професси ...
  • Вирус / Flu (Ким Сон Су, Драма, 2013) [HDTVRip, Любительский (двухголосый з ...
  • Орудие смерти / A-i-deul... (Ли Гю Ман, Триллер, криминал, 2011) [DVDRip, П ...
  • Берлинское дело / The Berlin File (Рю Сын Ван, Боевик, триллер, драма, 2013 ...
  • Псы войны / The Dogs of War (Джон Ирвин, боевик, драма, приключения, военны ...
  • [EN] Команда: На пути Аллаха / Takiye: Allah yolunda (2010, Бен Вербонг, тр ...
  • Новые парни турбо / New Kids Turbo (Штефен Хаарс, Боевик, комедия, 2010) [H ...
  • Формула 1 2011 / Этап 17 из 19 / Гран-При Индии / Гонка / Спорт 1 [30.10.20 ...
  • Чемпионат Англии 2011-12 / 36 тур / Челси - Куинз Парк Рейнджерс / Спорт 1 ...
  • Чемпионат Европы 2012 / Группа C / 1-й тур / Ирландия — Хорватия / ТРК Футб ...
  • Чемпионат Европы 2012 / Группа D / 1-й тур / Украина - Швеция / Спорт 1 [11 ...
  • Tank Feat. T.I. & Kris Stephens / Compliments [2012, RnB,Hip-Hop, HDRip]
  • Неделя в NBA с В.Гомельским / НТВ+ [28.06.2011, SD, XviD, RU, SAT]
  • Задание / The Task (Алекс Оруэлл, Ужасы, 2010) [HDRip, Профессиональный (мн ...
  • [NG] В глубинах Ледовитого океана / Deepsea Under The Pole (Документальный, ...
  • Мистер Ганджубас / Mr. Nice (Бернард Роуз, Драма, комедия, 2010)[HDRip, Про ...
  • Военные игры / War Games: At the End of the Day(Козимо Алема, Триллер, Ужас ...
  • Романтики / The Romantics (Галт Нидерхоффер, Драма, мелодрама, комедия, 201 ...
  • Чемпионат Европы 2012 / Группа B / 1-й тур / Германия - Португалия / Спорт ...
  • Полусвет / Half Light (Крэйг Розенберг, Ужасы, триллер, драма, детектив, 20 ...
  • Товарищеский матч 2012 / АмаЗулу (ЮАР) - Манчестер Юнайтед (Англия) / MU TV ...
  • Олимпиада 2012 / Женщины, Мужчины / Плавание / Квалификация / НТВ+ [30.07.2 ...
  • Искажение / Skew (Сейв Челенз, ужасы, триллер, 2011) [HDRip, Профессиональн ...
  • Рука-убийца / Idle Hands (Родмен Флендер,ужасы, триллер, комедия, 1999) [HD ...
  • Крузо / Crusoe (Калеб Дешанель, Драма, 1988) [HDTVRip, Профессиональный (дв ...
  • Информация
    Посетители, находящиеся в группе Гости, не могут оставлять комментарии к данной публикации.