вход на сайт

Имя пользователя :
Пароль :

Восстановление пароля Регистрация
Нежность / La délicatesse (Давид Фонкинос, Стефан Фонкинос, мелодрама, комедия, 2011) [BDRip-AVC, Профессиональный (полное дублирование)]
Рейтинг:
(голосов: 1)



[img]{THEME}/images/logopost.png[/img]



Нежность / La délicatesse
«Всё началось со случайного поцелуя»

Год выпуска: 2011
Страна: Франция
Производство: Compagnie Cinématographique Européenne, La, Canal+ [fr], Panache Productions
Жанр: мелодрама, комедия

Режиссёр: Давид Фонкинос, Стефан Фонкинос
В ролях: Одри Тоту, Франсуа Дамиенс, Бруно Тодескини, Мелани Бернье, Жозефин де Мо, Пио Мармай, Моник Шометт, Марк Китти, Александр Павлофф, Виттория Сконьямильо

Перевод: Дублированный
Субтитры: Отсутствуют

Описание: В один прекрасный день сказочно обворожительная Натали целует молодого коллегу Маркуса. Без особых на то причин, просто так. И даже не придает этому никакого значения. Но Маркус ошеломлен: случайный поцелуй перевернул его жизнь! Теперь он не может думать ни о ком, кроме Натали. Молодому человеку предстоит завоевать сердце коллеги, которая его почти не замечает…Дата премьеры (мир): 8 ноября 2011
Дата премьеры (РФ): 1 марта 2012, «Каравелла DDC»
Качество: BDRip-AVC (Исходник: BDRemux 1080p)
Продолжительность: 01:44:45


Формат: MKV
Видео кодек: x264
Аудио кодек: AAC-LC
Видео: 1024x554, (16:9), ~ 2404kbps, 23,976fps, ~0,177bit/pixel
Аудио: 48 kHz, AC3 Dolby Digital, 3/2 (L,C,R,l,r) + LFE ch, ~448 kbps
MediaInfo ▼TextОбщее
Уникальный идентификатор : 249122364884222668934035036693345543029 (0xBB6B38E45FB62DBB94DE683F3B4F2375)
Полное имя : K:КИНО 2NegnostNegnost 2.18.BDRip-AVC.mkv
Формат : Matroska
Версия формата : Version 2
Размер файла : 2,18 Гбайт
Продолжительность : 1 ч. 49 м.
Общий поток : 2846 Кбит/сек
Название фильма : Negnost 2.18.BDRip-AVC[Rip Mitia-ia]
Дата кодирования : UTC 2012-04-19 17:11:24
Программа кодирования : mkvmerge v5.5.0 (Healer) built on Apr 6 2012 21:43:24
Библиотека кодирования : libebml v1.2.3 + libmatroska v1.3.0

Видео
Идентификатор : 1
Формат : AVC
Формат/Информация : Advanced Video Codec
Профиль формата : [email protected]
Параметр CABAC формата : Да
Параметр ReFrames формата : 11 кадров
Идентификатор кодека : V_MPEG4/ISO/AVC
Продолжительность : 1 ч. 49 м.
Битрейт : 2404 Кбит/сек
Ширина : 1024 пикселя
Высота : 554 пикселя
Соотношение сторон : 16:9
Частота кадров : 23,976 кадра/сек
Цветовое пространство : YUV
Субдискретизация насыщенности : 4:2:0
Битовая глубина : 8 бит
Тип развёртки : Прогрессивная
Бит/(Пиксели*Кадры) : 0.177
Размер потока : 1,79 Гбайт (82%)
Библиотека кодирования : x264 core 119 r2106 07efeb4
Настройки программы : cabac=1 / ref=11 / deblock=1:-2:-1 / analyse=0x3:0x113 / me=umh / subme=9 / psy=1 / psy_rd=1.00:0.10 / mixed_ref=1 / me_range=32 / chroma_me=1 / trellis=1 / 8x8dct=1 / cqm=0 / deadzone=21,11 / fast_pskip=0 / chroma_qp_offset=-3 / threads=3 / sliced_threads=0 / nr=0 / decimate=1 / interlaced=0 / bluray_compat=0 / constrained_intra=0 / bframes=5 / b_pyramid=2 / b_adapt=1 / b_bias=0 / direct=3 / weightb=1 / open_gop=0 / weightp=0 / keyint=240 / keyint_min=23 / scenecut=40 / intra_refresh=0 / rc_lookahead=60 / rc=2pass / mbtree=1 / bitrate=2404 / ratetol=1.0 / qcomp=0.60 / qpmin=0 / qpmax=69 / qpstep=4 / cplxblur=20.0 / qblur=0.5 / ip_ratio=1.40 / aq=1:1.00
Язык : English
Default : Да
Forced : Да

Аудио
Идентификатор : 2
Формат : AC-3
Формат/Информация : Audio Coding 3
Расширение режима : CM (complete main)
Идентификатор кодека : A_AC3
Продолжительность : 1 ч. 49 м.
Вид битрейта : Постоянный
Битрейт : 448 Кбит/сек
Каналы : 6 каналов
Расположение каналов : Front: L C R, Side: L R, LFE
Частота : 48,0 КГц
Битовая глубина : 16 бит
Метод сжатия : С потерями
Размер потока : 351 Мбайт (16%)
Язык : Russian
Default : Да
Forced : Нет





85865e91df27ece0ce58d385525d86c79e1ee3e2Нежность / La délicatesse (Давид Фонкинос, Стефан Фонкинос, мелодрама, комедия, 2011) [BDRip-AVC, Профессиональный (полное дублирование)] Нежность / La délicatesse (Давид Фонкинос, Стефан Фонкинос, мелодрама, комедия, 2011) [BDRip-AVC, Профессиональный (полное дублирование)] " />

Аплоадер: Админ, дата: 20-04-2012, 11:54, торрент скачан: 359 раз

Понравилась раздача? Посмотрите эти:
  • Нежность / La délicatesse (Давид Фонкинос, Стефан Фонкинос, мелодрама, коме ...
  • Больше, чем любовь / A Lot Like Love (Найджел Коул, Драма, мелодрама, комед ...
  • Даю год / I Give It a Year (Дэн Мазер, мелодрама, комедия, 2012) [BDRip-AVC ...
  • Холостячки / Bachelorette (Лесли Хэдланд, комедия, мелодрама, 2012) [BDRip- ...
  • Толстяк на ринге / Here Comes the Boom (Фрэнк Корачи, Боевик, комедия, 2012 ...
  • Секса много не бывает / Un heureux evenement (Реми Безансон, драма, комедия ...
  • Главное - не бояться! / A Little Bit of Heaven (Николь Кэссел / Nicole Kass ...
  • Драйв / Drive (Николас Виндинг Рёфн, боевик, триллер, драма, криминал, 2011 ...
  • Челюсти 3D / Shark Night 3D ( Дэвид Р. Эллис, ужасы, 2011) [BDRip-AVC, Проф ...
  • Драйв / Drive (Николас Виндинг Рёфн, боевик, триллер, драма, криминал, 2011 ...
  • Переростки / The Inbetweeners (Бен Палмер, Комедия, 2011) [BDRip-AVC, Профе ...
  • Отряд особого назначения / Forces speciales (Стефан Рибожа, боевик, драма, ...
  • Нежность / La délicatesse (Давид Фонкинос, Стефан Фонкинос, Мелодрама, 2011 ...
  • Свадебный разгром / A Few Best Men (Стефан Эллиотт, комедия, 2011) [BDRip-A ...
  • Девчата (Юрий Чулюкин, мелодрама, комедия, 1961) [BDRip - AVC, Не требуется ...
  • Четыре Рождества / Four Christmases (Сет Гордон, Драма, мелодрама, комедия, ...
  • Нежность / La délicatesse (Давид Фонкинос, Стефан Фонкинос, мелодрама, коме ...
  • Переростки / The Inbetweeners (Бен Палмер / Ben Palmer, комедия, 2011) [BDR ...
  • Схватка / The Grey (Джо Карнахан, боевик, триллер, драма, приключения, 2012 ...
  • Нежность / La délicatesse (Давид Фонкинос, Стефан Фонкинос, мелодрама, коме ...
  • Свадебный разгром / A Few Best Men (Стефан Эллиотт, Комедия, 2011) [BDRip 7 ...
  • Лоракс: Серенада / The Lorax: Serenade (Кайл Балда, мультфильм, комедия, му ...
  • Сейчас самое время / Now Is Good (Ол Паркер, Мелодрама, 2012) [BDRip-AVC, П ...
  • Нежность / La délicatesse (Давид Фонкинос, Стефан Фонкинос, Мелодрама, 2011 ...
  • Нежность / La délicatesse (Давид Фонкинос, Стефан Фонкинос, мелодрама, коме ...
  • Информация
    Посетители, находящиеся в группе Гости, не могут оставлять комментарии к данной публикации.