вход на сайт

Имя пользователя :
Пароль :

Восстановление пароля Регистрация
Больше чем секс / No Strings Attached (Айвен Райтман, мелодрама, комедия, 2011) [BDRip-AVC, Полное дублирование + Оригинал + Sub]
Рейтинг:
(голосов: 1)



[img]{THEME}/images/logopost.png[/img]



Больше чем секс / No Strings Attached
«Сможет ли бабник влюбиться в красотку?»

Год выпуска: 2011
Страна: США
Производство: Paramount Picture & Spyglass Entertainment
Жанр: комедия, мелодрама

Режиссёр: Айвен Райтман
В ролях: Натали Портман, Эштон Катчер, Кевин Клайн, Кэри Элвис, Грета Гервиг, Лэйк Белл, Оливия Тирлби, Лудакрис, Джэйк М. Джонсон, Мелинда Калинг

Перевод: Полное дублирование + Оригинал
Субтитры: Russian, English

Описание: Романтическая комедия о том, как легко мужчины и женщины вступают в сексуальную связь, но как трудно им достичь эмоциональной близости. Главных героев связывают только сексуальные отношения, но со временем они понимают, что на смену физиологическим инстинктам приходит нечто большее.
"Награды и премии" ▼Премия канала «MTV», 2011 год
Номинации (1):
* Лучшая комедийная роль (Эштон Катчер)


Качество: BDRip-AVC
Продолжительность: 01:47:58 час.

Формат: MKV
Видео кодек: AVC
Аудио кодек: AC3
Видео: 1056x440 (2.40:1), 23.976 fps, AVC, ~3 086 kbps, 0.277 bits/pixel
Аудио: 48 kHz, AC3, 3/2 (L,C,R,l,r) + LFE ch, ~448 kbps | Russian (DUB)
Аудио: 48 kHz, AC3, 3/2 (L,C,R,l,r) + LFE ch, ~448 kbps | English

Премьера (мир): 11 января 2011
Премьера (РФ): 3 марта 2011, «Централ Партнершип»
Mediainfo ▼General
Unique ID : 239402454938549428219706056792640227357 (0xB41B3C550A0FEBE38142F93FB79E881D)
Complete name : D:Мои раздачиБольше чем секс (2011)No Strings Attached.mkv
Format : Matroska
Format version : Version 2
File size : 3.00 GiB
Duration : 1h 47mn
Overall bit rate : 3 984 Kbps
Encoded date : UTC 2011-08-29 10:16:53
Writing application : mkvmerge v4.9.1 (Ich will) сборка от Jul 11 2011 23:53:15
Writing library : libebml v1.2.1 + libmatroska v1.1.1
Video
ID : 1
Format : AVC
Format/Info : Advanced Video Codec
Format profile : [email protected]
Format settings, CABAC : Yes
Format settings, ReFrames : 9 frames
Format settings, GOP : M=7, N=24
Codec ID : V_MPEG4/ISO/AVC
Duration : 1h 47mn
Bit rate : 3 086 Kbps
Width : 1 056 pixels
Height : 440 pixels
Display aspect ratio : 2.40:1
Frame rate : 23.976 fps
Color space : YUV
Chroma subsampling : 4:2:0
Bit depth : 8 bits
Scan type : Progressive
Bits/(Pixel*Frame) : 0.277
Stream size : 2.27 GiB (76%)
Writing library : x264 core 115 r1995 c1e60b9
Encoding settings : cabac=1 / ref=9 / deblock=1:-1:-1 / analyse=0x3:0x113 / me=umh / subme=10 / psy=1 / psy_rd=1.15:0.05 / mixed_ref=1 / me_range=32 / chroma_me=1 / trellis=2 / 8x8dct=1 / cqm=0 / deadzone=21,11 / fast_pskip=0 / chroma_qp_offset=-3 / threads=6 / sliced_threads=0 / nr=0 / decimate=1 / interlaced=0 / bluray_compat=0 / constrained_intra=0 / bframes=9 / b_pyramid=2 / b_adapt=2 / b_bias=0 / direct=3 / weightb=1 / open_gop=0 / weightp=2 / keyint=250 / keyint_min=23 / scenecut=40 / intra_refresh=0 / rc=2pass / mbtree=0 / bitrate=3086 / ratetol=1.0 / qcomp=0.60 / qpmin=0 / qpmax=69 / qpstep=4 / cplxblur=20.0 / qblur=0.5 / ip_ratio=1.40 / pb_ratio=1.30 / aq=2:0.90 / zones=148778,155324,q=35
Language : English
Audio #1
ID : 2
Format : AC-3
Format/Info : Audio Coding 3
Mode extension : CM (complete main)
Codec ID : A_AC3
Duration : 1h 47mn
Bit rate mode : Constant
Bit rate : 448 Kbps
Channel(s) : 6 channels
Channel positions : Front: L C R, Side: L R, LFE
Sampling rate : 48.0 KHz
Bit depth : 16 bits
Compression mode : Lossy
Stream size : 346 MiB (11%)
Title : Dub
Language : Russian
Audio #2
ID : 3
Format : AC-3
Format/Info : Audio Coding 3
Mode extension : CM (complete main)
Codec ID : A_AC3
Duration : 1h 47mn
Bit rate mode : Constant
Bit rate : 448 Kbps
Channel(s) : 6 channels
Channel positions : Front: L C R, Side: L R, LFE
Sampling rate : 48.0 KHz
Bit depth : 16 bits
Compression mode : Lossy
Stream size : 346 MiB (11%)
Title : Original
Language : English
Text #1
ID : 4
Format : UTF-8
Codec ID : S_TEXT/UTF8
Codec ID/Info : UTF-8 Plain Text
Language : English
a07709a7ce855d024a63dc47b6c31db7db8f83a9Больше чем секс / No Strings Attached (Айвен Райтман, мелодрама, комедия, 2011) [BDRip-AVC, Полное дублирование + Оригинал + Sub] Больше чем секс / No Strings Attached (Айвен Райтман, мелодрама, комедия, 2011) [BDRip-AVC, Полное дублирование + Оригинал + Sub] " />

Аплоадер: Админ, дата: 13-04-2012, 14:54, торрент скачан: 359 раз

Понравилась раздача? Посмотрите эти:
  • Пастырь / Priest (Скотт Чарльз Стюарт, ужасы, фантастика, боевик, триллер, ...
  • Как выйти замуж за 3 дня / Leap Year (Ананд Такер, Мелодрама, комедия, 2010 ...
  • Экипаж / Flight (Роберт Земекис, Драма, 2012) [BDRip-AVC, Профессиональный ...
  • Больше чем секс / No Strings Attached (Айвен Райтман, мелодрама, комедия, 2 ...
  • Больше чем секс / No Strings Attached (Айвен Райтман, мелодрама, комедия, 2 ...
  • Хранитель времени / Hugo (Мартин Скорсезе, Драма, 2011) [BDRip-AVC, Професс ...
  • «Старый» Новый год / New Years Eve (Гэрри Маршалл, Мелодрама, 2011) [BDRip- ...
  • Бедная богатая девочка / Young Adult (Джейсон Райтман, драма, комедия, 2011 ...
  • Фантомы / Shutter (Масаюки Очиай, ужасы, триллер, детектив, 2008) [BDRip-AV ...
  • Черное золото / Black Gold (Жан-Жак Анно, Драма, 2011) [BDRip-AVC, Професси ...
  • Больше чем секс / No Strings Attached (Айвен Райтман, мелодрама, комедия, 2 ...
  • Больше чем секс / No Strings Attached (Айвен Райтман, мелодрама, комедия, 2 ...
  • Мой парень из зоопарка / Zookeeper (Фрэнк Корачи, мелодрама, комедия, семей ...
  • Секс по дружбе / Friends with Benefits (Уилл Глак, драма, мелодрама, комеди ...
  • Ларри Краун / Larry Crowne (Том Хэнкс, драма, мелодрама, комедия, 2011) [BD ...
  • Домашняя работа / The Art of Getting By (Гэвин Вьесен, драма, мелодрама, 20 ...
  • Значит, война / This Means War (МакДжи, боевик, мелодрама, комедия, 2012) [ ...
  • Mylene Farmer / Du Temps [2011, Pop, HDTVRip]
  • Mylene Farmer / Bleu Noir [2011, Pop, HDTVRip]
  • Больше чем секс / No Strings Attached (Айвен Райтман, мелодрама, комедия, 2 ...
  • Больше чем секс / No Strings Attached (Айвен Райтман, мелодрама, комедия, 2 ...
  • Больше чем секс / No Strings Attached (Айвен Райтман, мелодрама, комедия, 2 ...
  • Больше чем секс / No Strings Attached (Айвен Райтман, мелодрама, комедия, 2 ...
  • Больше чем секс / No Strings Attached (Айвен Райтман, мелодрама, комедия, 2 ...
  • Больше чем секс / No Strings Attached (Айвен Райтман, мелодрама, комедия, 2 ...
  • Информация
    Посетители, находящиеся в группе Гости, не могут оставлять комментарии к данной публикации.