вход на сайт

Имя пользователя :
Пароль :

Восстановление пароля Регистрация
Отвези меня домой / Take Me Home Tonight (Майкл Даус, комедия, драма, 2011)[BDRip-AVC, Профессиональный (полное дублирование)]
Рейтинг:
(голосов: 1)



[img]{THEME}/images/logopost.png[/img]



Отвези меня домой / Take Me Home Tonight

«Best. Night. Ever.»


Год выпуска: 2011
Страна:СШАГермания
Производство: Imagine Entertainment, Internationale Filmproduktion Blackbird Dritte
Жанр: комедия, драма

Режиссёр: Майкл Даус
В ролях: Тофер Грейс, Анна Фэрис, Дэн Фоглер, Тереза Палмер, Крис Прэтт, Майкл Бьен, Джини Хэкетт, Люси Панч, Мишель Трахтенберг, Деметри Мартин

Перевод: Профессиональный (полное дублирование)
Озвучка: не известно
Субтитры: нет

Описание:
Фильм повествует о приключениях выпускника колледжа Мэта Франклина, его сестры и лучшего друга. Они уже совсем взрослые, но никак не могут найти свое место в жизни. Жизнь главного героя также осложняется тем, что он пытается добиться внимания девушки своей мечты, однако при знакомстве Мэт наврал ей, что работает в Голдман Сакс - крупнейшем коммерческом банке. Однажды судьбы всех героев истории круто изменятся во время дикой вечеринки!

IMDB-рейтинг:6.40 (12.568)

КиноПоиск-рейтинг:6.055 (843)


Тех.Данные:
Качество: BDRip-AVC
Продолжительность: 01:23:28 часа

Формат: MKV
Видео кодек: H.264
Аудио кодек: AC-3
Видео: 1280x528 (2,40:1), 23.97 fps, AVC, ~ 3000 kbps avg, 0.18 bit/pixel
Аудио: 48.00 kHz, Audio Coding 3 , 6 ch, ~ 384.00 kbps
"MediaInfo" ▼Общее
Уникальный идентификатор : 226566779432574144204146343870598288948 (0xAA732CAB7583647F8624D11371C11634)
Полное имя : D:РаспоковкаОтвези меня домой.2011.BDRip.mkv
Формат : Matroska
Размер файла : 2,30 Гбайт
Продолжительность : 1 ч. 37 м.
Общий поток : 3381 Кбит/сек
Дата кодирования : UTC 2011-11-12 17:14:08
Программа кодирования : mkvmerge v4.4.0 (Die Wiederkehr) сборка от Oct 31 2010 21:52:48
Библиотека кодирования : libebml v1.0.0 + libmatroska v1.0.0

Видео
Идентификатор : 1
Формат : AVC
Формат/Информация : Advanced Video Codec
Профиль формата : [email protected]
Параметр CABAC формата : Да
Параметр ReFrames формата : 11 кадры
Режим смешивания : Header stripping
Идентификатор кодека : V_MPEG4/ISO/AVC
Продолжительность : 1 ч. 37 м.
Битрейт : 3000 Кбит/сек
Ширина : 1280 пикс.
Высота : 528 пикс.
Соотношение сторон : 2,40:1
Частота кадров : 23,976 кадр/сек
Цветовое пространство : YUV
Подвыборка цветности : 4:2:0
Битовая глубина : 8 бит
Тип развёртки : Прогрессивная
Бит/(Пиксели*Кадры) : 0.185
Размер потока : 1,99 Гбайт (87%)
Заголовок : AVC MPEG4 Video
Библиотека кодирования : x264 core 116 r2019 9cc407d
Настройки программы : cabac=1 / ref=12 / deblock=1:-1:-1 / analyse=0x3:0x133 / me=umh / subme=10 / psy=1 / psy_rd=1.00:0.15 / mixed_ref=1 / me_range=48 / chroma_me=1 / trellis=2 / 8x8dct=1 / cqm=0 / deadzone=21,11 / fast_pskip=0 / chroma_qp_offset=-5 / threads=6 / sliced_threads=0 / nr=0 / decimate=1 / interlaced=0 / bluray_compat=0 / constrained_intra=0 / bframes=16 / b_pyramid=1 / b_adapt=2 / b_bias=0 / direct=3 / weightb=1 / open_gop=0 / weightp=2 / keyint=250 / keyint_min=23 / scenecut=40 / intra_refresh=0 / rc_lookahead=60 / rc=2pass / mbtree=1 / bitrate=3000 / ratetol=2.0 / qcomp=0.60 / qpmin=0 / qpmax=69 / qpstep=4 / cplxblur=20.0 / qblur=0.5 / vbv_maxrate=16800 / vbv_bufsize=50000 / nal_hrd=none / ip_ratio=1.40 / aq=1:1.00
Язык : English
Основные цвета : BT.709-5, BT.1361, IEC 61966-2-4, SMPTE RP177
Характеристики трансфера : BT.709-5, BT.1361
Коэффициенты матрицы : BT.709-5, BT.1361, IEC 61966-2-4 709, SMPTE RP177

Аудио
Идентификатор : 2
Формат : AC-3
Формат/Информация : Audio Coding 3
Расширение режима : CM (complete main)
Режим смешивания : Header stripping
Идентификатор кодека : A_AC3
Продолжительность : 1 ч. 37 м.
Вид битрейта : Постоянный
Битрейт : 384 Кбит/сек
Канал(ы) : 6 канала(ов)
Расположение каналов : Front: L C R, Side: L R, LFE
Частота : 48,0 КГц
Битовая глубина : 16 бит
Метод сжатия : С потерями
Размер потока : 267 Мбайт (11%)





63040539811e67f8ae8dddcf463ebeb402267c66Отвези меня домой / Take Me Home Tonight (Майкл Даус, комедия, драма, 2011)[BDRip-AVC, Профессиональный (полное дублирование)] Отвези меня домой / Take Me Home Tonight (Майкл Даус, комедия, драма, 2011)[BDRip-AVC, Профессиональный (полное дублирование)] " />

Аплоадер: Админ, дата: 13-11-2011, 17:16, торрент скачан: 359 раз

Понравилась раздача? Посмотрите эти:
  • Мальчишник: Часть III / The Hangover Part III (Тодд Филлипс, Комедия, 2013) ...
  • Гадкий я 2 / Despicable Me 2 (Пьер Соффин, Крис Рено, мультфильм, фантастик ...
  • Больше, чем любовь / A Lot Like Love (Найджел Коул, Драма, мелодрама, комед ...
  • Переполох на районе / Les Kaïra (Франк Гастамбиде, комедия, 2012) [BDRip 10 ...
  • Даю год / I Give It a Year (Дэн Мазер, мелодрама, комедия, 2012) [BDRip-AVC ...
  • Девушка по вызову / The Girlfriend Experience (Стивен Содерберг, Драма, 200 ...
  • Страшно красив / Beastly (Даниел Барнз, фэнтези, драма, мелодрама, 2011) [H ...
  • Челюсти 3D / Shark Night 3D ( Дэвид Р. Эллис, ужасы, 2011) [BDRip-AVC, Проф ...
  • Драйв / Drive (Николас Виндинг Рёфн, боевик, триллер, драма, криминал, 2011 ...
  • Резня /Carnage (Роман Полански, драма, комедия, 2011) [DVDRip-AVC, Дублиров ...
  • Профессионал / Killer Elite (Гэри МакКендри, боевик, 2011) [BDRip-AVC, Проф ...
  • Дьявол / Devil (Джон Эрик Даудл / John Erick Dowdle,ужасы, триллер, детекти ...
  • Переростки / The Inbetweeners (Бен Палмер, Комедия, 2011) [BDRip-AVC, Профе ...
  • Отряд особого назначения / Forces speciales (Стефан Рибожа, боевик, драма, ...
  • Четыре Рождества / Four Christmases (Сет Гордон, Драма, мелодрама, комедия, ...
  • День учителя (Сергей Мокрицкий, драма, 2012) [DVDRip-AVC, Не требуется]
  • История игрушек: Гавайские каникулы / Toy Story: Hawaiian Vacation (Гари ...
  • Кот в сапогах / Puss in Boots (Крис Миллер, мультфильм, фэнтези, комедия, п ...
  • Переростки / The Inbetweeners (Бен Палмер / Ben Palmer, комедия, 2011) [BDR ...
  • Стыд / Shame (Стив МакКуин, драма, 2011) [BDRip 1080p, полное дублирование, ...
  • Свадебный разгром / A Few Best Men (Стефан Эллиотт, Комедия, 2011) [BDRip 7 ...
  • Павшая империя / Hirokin (Алехо Мо-Сан, фантастика, боевик, драма, приключе ...
  • Пол: Секретный материальчик (театральная версия) / Paul (Theatrical Cut) ( ...
  • Отвези меня домой / Take Me Home Tonight (Майкл Даус, комедия, драма, 2011) ...
  • Отвези меня домой / Take Me Home Tonight (Майкл Даус, Драма, 2011) [HDRip, ...
  • Информация
    Посетители, находящиеся в группе Гости, не могут оставлять комментарии к данной публикации.