вход на сайт

Имя пользователя :
Пароль :

Восстановление пароля Регистрация
Криминальная фишка от Генри / Henrys Crime (Малькольм Венвилль, мелодрама, комедия, криминал, 2011) [BDRip, Дубляж [Лицензия] + Оригинал + SUB(Rus, Eng)] от HELLYWOOD
Рейтинг:
(голосов: 1)



[img]{THEME}/images/logopost.png[/img]



Криминальная фишка от Генри / Henrys Crime

Слоган "Ну как не совершить преступление, за которое уже отсидел?"

Год выпуска: 2011
Страна: США
Производство: Firstar Films
Жанр: мелодрама, комедия, криминал

Режиссёр: Малькольм Венвилль
В ролях: Киану Ривз, Джеймс Каан, Вера Фармига, Джуди Грир, Фишер Стивенс, Дэнни Хоч, Билл Дьюк, Дрю МакВети, Тим Снэй, Карлос Зизарро, Крис Кардона, Марк Энтони, Brian Rogalski, Стив Бошан, Allel Aimiche, Петер Стормаре, Карри Грэм, Дэвид Костабайл, Джордан Гелбер

Перевод: Дублированный [Лицензия] + Оригинал
Субтитры: Русские, английские (full) [srt*]

Описание:
Встречайте Генри — самого унылого парня в Америке. Он сидит в своей будке у дороги, взимая пошлину с проезжающих. Казалось, в его жизни ничто не может измениться. Но однажды сомнительный приятель попросил Генри подождать его у крыльца главного банка в Буффало… В результате — четыре года тюрьмы по ложному обвинению в ограблении. Но пройдет время, и Генри вернется к тому самому банку, чтобы взять свое…





Доп. информация:

Релиз от :
Автор рипа : VOLKiGOR
Премьера: ▼премьера (мир) 7 апреля 2011
премьера (РФ) 7 апреля 2011, «Парадиз»
релиз на Blu-Ray 30 июня 2011, «Парадиз Видео»
релиз на DVD 16 июня 2011, «Парадиз Видео»
MediaInfo: ▼Общее
Полное имя : C:UsersШапагатDesktopKriminalnaja.fishka.ot.Genri.2011.DUAL.BDRip.XviD.AC3.-HELLYWOODkriminalnaja.fishka.ot.genri.2011.dual.bdrip.xvid.ac3.-hellywood.avi
Формат : AVI
Формат/Информация : Audio Video Interleave
Профиль формата : OpenDML
Размер файла : 2,18 Гбайт
Продолжительность : 1 ч. 47 м.
Общий поток : 2901 Кбит/сек
Название фильма : Криминальная фишка от Генри / Henrys Crime (2011) BDRip
Режиссёр : VOLKiGOR
Программа кодирования : VirtualDubMod 1.5.10.2 (build 2540/release)
Правообладатель : http://forum.hellywood.ru/

Видео
Идентификатор : 0
Формат : MPEG-4 Visual
Профиль формата : Advanced [email protected]
Параметр BVOP формата : 1
Параметр QPel формата : Нет
Параметр GMC формата : Без точки перехода
Параметр матрицы формата : Выборочная
Идентификатор кодека : XVID
Идентификатор кодека/Подсказка : XviD
Продолжительность : 1 ч. 47 м.
Битрейт : 2051 Кбит/сек
Ширина : 720 пикс.
Высота : 304 пикс.
Соотношение сторон : 2,35:1
Частота кадров : 23,976 кадр/сек
Цветовое пространство : YUV
Подвыборка цветности : 4:2:0
Битовая глубина : 8 бит
Тип развёртки : Прогрессивная
Метод сжатия : С потерями
Бит/(Пиксели*Кадры) : 0.391
Размер потока : 1,54 Гбайт (71%)
Библиотека кодирования : XviD 62

Аудио #1
Идентификатор : 1
Формат : AC-3
Формат/Информация : Audio Coding 3
Расширение режима : CM (complete main)
Идентификатор кодека : 2000
Продолжительность : 1 ч. 47 м.
Вид битрейта : Постоянный
Битрейт : 384 Кбит/сек
Канал(ы) : 6 канала(ов)
Расположение каналов : Front: L C R, Side: L R, LFE
Частота : 48,0 КГц
Битовая глубина : 16 бит
Метод сжатия : С потерями
Размер потока : 296 Мбайт (13%)
Выравнивание : Разделение по промежуткам
Продолжительность промежутка : 42 мс. (1,00 видеокадр)
Время предзагрузки промежутка : 500 ms

Аудио #2
Идентификатор : 2
Формат : AC-3
Формат/Информация : Audio Coding 3
Расширение режима : CM (complete main)
Идентификатор кодека : 2000
Продолжительность : 1 ч. 47 м.
Вид битрейта : Постоянный
Битрейт : 448 Кбит/сек
Канал(ы) : 6 канала(ов)
Расположение каналов : Front: L C R, Side: L R, LFE
Частота : 48,0 КГц
Битовая глубина : 16 бит
Метод сжатия : С потерями
Размер потока : 345 Мбайт (15%)
Выравнивание : Разделение по промежуткам
Продолжительность промежутка : 42 мс. (1,00 видеокадр)
Время предзагрузки промежутка : 500 ms



Тех. данные:
Качество: BDRip
Продолжительность: 01:47:45 час.

Формат: AVI
Видео кодек: XviD
Аудио кодек: AС3
Видео: 720x304 (2.37:1), 23.976 fps, XviD build 62 ~2061 kbps avg, 0.39 bit/pixel
Аудио: 48 kHz, AC3 Dolby Digital, 3/2
2962d9b9b90645118c70686b6b42d8a4f2a911cfКриминальная фишка от Генри / Henrys Crime (Малькольм Венвилль, мелодрама, комедия, криминал, 2011) [BDRip, Дубляж [Лицензия] + Оригинал + SUB(Rus, Eng)] от HELLYWOOD Криминальная фишка от Генри / Henrys Crime (Малькольм Венвилль, мелодрама, комедия, криминал, 2011) [BDRip, Дубляж [Лицензия] + Оригинал + SUB(Rus, Eng)] от HELLYWOOD " />

Аплоадер: Админ, дата: 14-06-2011, 03:17, торрент скачан: 359 раз

Понравилась раздача? Посмотрите эти:
  • Бойфренд из будущего / About Time (Ричард Кёртис, Фантастика, драма, комеди ...
  • Одноклассники 2 / Grown Ups 2 (Деннис Дуган, Комедия, 2013) [BDRip, Професс ...
  • Кровью и потом: Анаболики / Pain & Gain (Майкл Бэй, криминал, комедия, трил ...
  • Криминальная фишка от Генри / Henrys Crime (Малькольм Венвилль, мелодрама, ...
  • Миллион для чайников / The Brass Teapot (Рамаа Мосли, Фэнтези, триллер, ком ...
  • Даю год / I Give It a Year (Дэн Мазер, Мелодрама, комедия, 2013) [DVDRip, Д ...
  • Криминальная фишка от Генри / Henrys Crime (Малькольм Венвилль , мелодрама, ...
  • Криминальная фишка от Генри / Henrys Crime (Малькольм Венвилль, Мелодрама, ...
  • Криминальная фишка от Генри / Henrys Crime (Малькольм Венвилль, мелодрама, ...
  • Криминальная фишка от Генри / Henrys Crime (Малькольм Венвилль, мелодрама, ...
  • Криминальная фишка от Генри / Henrys Crime (Малькольм Венвилль, Мелодрама, ...
  • Легенда о МорДу / The Legend of MorDu (Брайан Ларсен, Короткометражный, ска ...
  • Криминальная фишка от Генри / Henrys Crime (Малькольм Венвилль, мелодрама, ...
  • Криминальная фишка от Генри / Henrys Crime (Малькольм Венвилль, комедия, кр ...
  • Кажется, я люблю свою жену / I Think I Love My Wife (Крис Рок, Драма, мелод ...
  • Боец из трущоб / Gutter King (Кейт Алан Моррис / Keith Alan Morris, боевик, ...
  • Криминальная фишка от Генри / Henry`s Crime (Малькольм Венвилль, Мелодрама, ...
  • Криминальная фишка от Генри / Henry`s Crime (Малькольм Венвилль, Мелодрама, ...
  • Челюсти 3D / Shark Night 3D (Дэвид Р. Эллис, ужасы, триллер, 2011) [HDRip, ...
  • Приключения Тинтина: Тайна Единорога / The Adventures of Tintin (Стивен Спи ...
  • Гениальный папа / Father of Invention (Трент Купер, Драма, комедия, 2010) [ ...
  • Жизнь за гранью / After.Life (Агнешка Войтович-Восло, Ужасы, триллер, драм ...
  • Глаз шторма / The Eye of the Storm (Фред Скеписи, Драма, 2011) [HDRip, Проф ...
  • Шаг вперед 4 / Step Up Revolution (Скотт Спир, Драма, мелодрама, музыка, 20 ...
  • Сдохни, Джон Такер / John Tucker Must Die (Бетти Томас, мелодрама, комедия, ...
  • Информация
    Посетители, находящиеся в группе Гости, не могут оставлять комментарии к данной публикации.